Загружается…
Ошибка

Скачать бесплатно торрент NHL '96, ? SC, матчи 1-6: Vancouver Canucks vs Colorado Avalanche [16.04.1996 - 27.04.1996, хоккей, Str/h264/EN] torrent download

Страницы:  1

Ответить на тему
Автор Сообщение

KiberPirat

NHL '96, ? SC, матчи 1-6:- Vancouver Canucks vs. Colorado Avalanche -Вид спорта: Хоккей
Дата: 16.04.1996 - 27.04.1996
Комментарий: Профессиональный
Язык комментариев: Английский
Source: NHL Vault
Автор рипа/записи: собственный
Качество: Str
Формат: mp4
Видео кодек: h.264 AVC High@L3.1
Аудио кодек: AAC
Видео: ~ 1000 kbps || 29.97 fps || 1264x544 || 16:9
Аудио: 128 Kbps || 48 KHz || 2 channels

MediaInfo

Код:
Расположение: D:\NHL\NHL.SC.1996\NHL.1996.WCQF.Canucks.vs.Avalanche.540p\NHL.1996.04.16.WCQF.G1.Canucks.vs.Avalanche.540p.mp4
Имя файла: NHL.1996.04.16.WCQF.G1.Canucks.vs.Avalanche.540p.mp4
Формат файла: .mp4 (MPEG-4)
Размер файла: 710.32 MB
Длительность: 1h 26mn
Навигация по главам: Нет
Bitrate (все потоки): 1 144 Kbps
...при помощи: Lavf53.14.0
Название: NHL.1996.04.16.WCQF.G1.Canucks.vs.Avalanche.540p
Тип потока: Видео
Длительность: 01:26:48
Кодек: AVC
Кодек/Профиль: High@L3.1
Кодек/ID: avc1
Размеры изображения: 1258 x 540 (16:9)
Частота кадров: 29.970 fps
Размер потока: 624 MiB (88%)
Битрейт: 1 000 Kbps
Библиотека кодирования: x264 core 83 r1400 20fa784
Настройки кодирования: cabac=1 / ref=4 / deblock=1:0:0 / analyse=0x3:0x113 / me=umh / subme=8 / psy=1 / psy_rd=1.0:0.0 / mixed_ref=1 / me_range=16 / chroma_me=1 / trellis=1 / 8x8dct=1 / cqm=0 / deadzone=21,11 / fast_pskip=1 / chroma_qp_offset=-2 / threads=12 / sliced_threads=0 / nr=0 / decimate=1 / mbaff=0 / constrained_intra=0 / bframes=3 / b_pyramid=0 / b_adapt=2 / b_bias=0 / direct=3 / wpredb=1 / wpredp=2 / keyint=250 / keyint_min=25 / scenecut=40 / intra_refresh=0 / rc_lookahead=40 / rc=abr / mbtree=1 / bitrate=1000 / ratetol=4.0 / qcomp=0.60 / qpmin=10 / qpmax=51 / qpstep=4 / ip_ratio=1.41 / aq=1:1.00
Тип потока: Звук #1
Длительность: 01:26:48.554
Кодек: AAC
Кодек/ID: 40
Частота дискретизации: 48.0 KHz
Каналов: 2 channels
Битрейт: 132 Kbps
Размер потока: 80.7 MiB (11%)

Матч №1. 1996.04.16. Vancouver Canucks vs. Colorado Avalanche

Продолжительность

01:26:48

Результат и Статистика

http://www.hockey-reference.com/boxscores/199604160COL.html

Скриншоты

Матч №2. 1996.04.18. Vancouver Canucks vs. Colorado Avalanche

Продолжительность

01:06:23

Результат и Статистика

http://www.hockey-reference.com/boxscores/199604180COL.html

Скриншоты

Матч №3. 1996.04.20. Colorado Avalanche vs. Vancouver Canucks

Продолжительность

01:15:31

Результат и Статистика

http://www.hockey-reference.com/boxscores/199604200VAN.html

Скриншоты

Матч №4. 1996.04.22. Colorado Avalanche vs. Vancouver Canucks

Продолжительность

01:07:27

Результат и Статистика

http://www.hockey-reference.com/boxscores/199604220VAN.html

Скриншоты

Матч №5. 1996.04.25. Vancouver Canucks vs. Colorado Avalanche

Продолжительность

01:29:54

Результат и Статистика

http://www.hockey-reference.com/boxscores/199604250COL.html

Скриншоты

Матч №6. 1996.04.27. Colorado Avalanche vs. Vancouver Canucks

Продолжительность

01:13:34

Результат и Статистика

http://www.hockey-reference.com/boxscores/199604270VAN.html

Скриншоты


Раздача от:
Как качать и Как раздавать  ·  Часто задаваемые Вопросы и Ответы (FAQ)