Загружается…
Ошибка

Скачать бесплатно торрент [SACD-R][OF] Robert Hohner Percussion Ensemble - Far More Drums - 2000 (Jazz, Fusion, Percussion) torrent download

Страницы:  1

Ответить на тему
Автор Сообщение

meloman

Robert Hohner Percussion Ensemble / Far More Drums
Формат записи/Источник записи: [SACD-R][OF]
Наличие водяных знаков: Нет
Год издания/переиздания диска: 2000
Жанр: Jazz, Fusion, Percussion
Издатель(лейбл): Digital Music Products, Inc.
Продолжительность: 45:53
Наличие сканов в содержимом раздачи: Да
Треклист:
01. Ogoun Badagris
02. Staves
03. Drummers Of Dagbon
04. Lift-off
05. Ku-Ka-Ilimoku
06. Ketiak
07. Crates
08. Tsunami
Контейнер: ISO (*.iso)
Тип рипа: image
Разрядность: 64(2,8 MHz/1 Bit)
Формат: DST64
Количество каналов: 2.0 & 5.1

Лог проверки качества - DR18/16

foobar2000 1.3.9 / Dynamic Range Meter 1.1.1log date: 2016-01-13 14:57:57
--------------------------------------------------------------------------------Analyzed: Hohner Percussion Ensemble / Far More Drums--------------------------------------------------------------------------------
DR Peak RMS Duration Track--------------------------------------------------------------------------------DR14 -4.65 dB -25.86 dB 4:28 01-OgounDR23 -2.89 dB -34.18 dB 3:53 02-StavesDR16 -5.76 dB -30.70 dB 3:11 03-DrummersDR16 -5.74 dB -29.29 dB 9:06 04-Lift-OffDR15 -3.91 dB -28.94 dB 5:08 05-Ku-KaDR16 -5.85 dB -29.36 dB 11:32 06-KetiakDR16 -3.29 dB -27.22 dB 3:16 07-CratesDR16 -3.06 dB -25.53 dB 5:20 08-Tsunami--------------------------------------------------------------------------------
Number of tracks: 8Official DR value: DR16
Samplerate: 2822400 Hz / PCM Samplerate: 88200 HzChannels: 6Bits per sample: 24Bitrate: 16934 kbpsCodec: DST64================================================================================
--------------------------------------------------------------------------------Analyzed: Hohner Percussion Ensemble / Far More Drums--------------------------------------------------------------------------------
DR Peak RMS Duration Track--------------------------------------------------------------------------------DR15 -5.61 dB -25.60 dB 4:28 01-OgounDR24 -3.45 dB -32.54 dB 3:53 02-StavesDR17 -6.61 dB -30.24 dB 3:11 03-DrummersDR17 -6.31 dB -28.46 dB 9:06 04-Lift-OffDR16 -4.62 dB -28.01 dB 5:08 05-Ku-KaDR16 -6.41 dB -27.83 dB 11:32 06-KetiakDR19 -4.62 dB -26.90 dB 3:16 07-CratesDR17 -3.88 dB -24.91 dB 5:20 08-Tsunami--------------------------------------------------------------------------------
Number of tracks: 8Official DR value: DR18
Samplerate: 2822400 Hz / PCM Samplerate: 88200 HzChannels: 2Bits per sample: 24Bitrate: 5645 kbpsCodec: DST64================================================================================
Источник (релизер): grillbrill
http://www.discogs.com/Robert-Hohner-Percussion-Ens.../release/4105370

Состав

Brian J. Ambrose
Jill Ball
Robert Hohner
david Altwerger
Reuben Booms

Об альбоме (сборнике)

Far More Drums album by Robert Hohner Percussion Ensemble was released Aug 15, 2000 on the Digital Music Products label. Percussion Ensemble.
Recorded on March 10, 2000

Раздача от:
Как качать и Как раздавать  ·  Часто задаваемые Вопросы и Ответы (FAQ)