Загружается…
Ошибка

Скачать бесплатно торрент АНИ ЛОРАК Медленно [2014, pop, Web-DL 1080p] torrent download

Страницы:  1

Ответить на тему
Автор Сообщение

meloman

АНИ ЛОРАК - Медленно
Жанр: pop
Продолжительность: 00:03:49
Год выпуска: 2014
Качество: WEB-DL
Контейнер: MP4
Видео кодек: H.264
Аудио кодек: AAC
Видео: AVC, 1920x1080, Variable (~ 8.0 Mbps), 25.000 fps
Аудио: AAC, Variable (320 Kbps), 48.0 KHz, 2 Channels

Отчёт MediaInfo / BDInfo

GeneralComplete name : E:\TorrentsDownLoads Hitachi 2T\HD Video\АНИ ЛОРАК Медленно.mp4Format : MPEG-4Format profile : Base Media / Version 2Codec ID : mp42File size : 229 MiBDuration : 3mn 49sOverall bit rate mode : VariableOverall bit rate : 8 336 Kbps
VideoID : 1Format : AVCFormat/Info : Advanced Video CodecFormat profile : Main@L4.2Format settings, CABAC : YesFormat settings, ReFrames : 3 framesCodec ID : avc1Codec ID/Info : Advanced Video CodingDuration : 3mn 49sSource duration : 3mn 50sBit rate mode : VariableBit rate : 8 014 KbpsMaximum bit rate : 12.0 MbpsWidth : 1 920 pixelsHeight : 1 080 pixelsDisplay aspect ratio : 16:9Frame rate mode : ConstantFrame rate : 25.000 fpsStandard : PALColor space : YUVChroma subsampling : 4:2:0Bit depth : 8 bitsScan type : ProgressiveBits/(Pixel*Frame) : 0.155Stream size : 220 MiB (96%)Source stream size : 220 MiB (96%)Language : EnglishColor range : Limitedmdhd_Duration : 229960
AudioID : 2Format : AACFormat/Info : Advanced Audio CodecFormat profile : LCCodec ID : 40Duration : 3mn 49sSource duration : 3mn 49sBit rate mode : VariableBit rate : 317 KbpsChannel(s) : 2 channelsChannel positions : Front: L RSampling rate : 48.0 KHzCompression mode : LossyStream size : 8.70 MiB (4%)Source stream size : 8.70 MiB (4%)Language : Englishmdhd_Duration : 229994

Скриншоты





Раздача от:
Как качать и Как раздавать  ·  Часто задаваемые Вопросы и Ответы (FAQ)