Загружается…
Ошибка

Скачать бесплатно торрент MBAND - Поколение "М" live-шоу [2015, Pop, UHDTVRip 1080p] torrent download

Страницы:  1

Ответить на тему
Автор Сообщение

meloman

MBAND - Поколение "М" live-шоу
Жанр: Pop
Продолжительность: 01:09:48
Год выпуска: 2015
Описание: Первый большой сольный концерт группы MBAND. Москва, Ray Just Arena, 10 октября 2015 г.
Режиссёр: RentgenFILM Production
© 2015 Velvet Music
MBAND - Поколение "М" live-шоу
1 Дай Мне
2 Белій Самолет
3 Все Сложно
4 Телефон
5 Чего Ты Хочешь?
6 Нет, Нет, Нет
7 Ангелы Не Умирают
8 Пойми
9 Она Вернется
10 Еще Подождем
11 Подними Глаза
12 Сделай Это Прямо Сейчас
13 Посмотри На Меня
14 Чомусь Так Гірко Плакала Вона
15 Она Вернется
Качество: UHDTVRip 1080p
Контейнер: MKV
Видео кодек: H.264
Аудио кодек: AAC
Видео: AVC, 1920x1080 (16:9), 25.000 fps, 15.9 Mbps
Аудио: AAC LC, 48.0 KHz, 2 ch, 317 kbps

MediaInfo /x264Logx264Log

avs [info]: 1920x1080p 1:1 @ 25/1 fps (cfr)x264 [info]: using SAR=1/1x264 [info]: using cpu capabilities: MMX2 SSE2Fast SSSE3 SSE4.2 AVXx264 [info]: profile High, level 4.1x264 [info]: frame I:680 Avg QP:18.50 size:215359x264 [info]: frame P:43240 Avg QP:21.41 size: 99139x264 [info]: frame B:60781 Avg QP:22.93 size: 63573x264 [info]: consecutive B-frames: 16.6% 12.1% 25.3% 36.0% 6.1% 3.0% 0.4% 0.4% 0.1% 0.0%x264 [info]: mb I I16..4: 14.9% 65.9% 19.1%x264 [info]: mb P I16..4: 12.0% 44.1% 4.2% P16..4: 17.2% 11.0% 6.6% 0.5% 0.1% skip: 4.3%x264 [info]: mb B I16..4: 4.3% 13.5% 1.3% B16..8: 28.3% 17.0% 6.2% direct:13.6% skip:15.9% L0:40.3% L1:38.5% BI:21.3%x264 [info]: 8x8 transform intra:72.3% inter:70.1%x264 [info]: direct mvs spatial:96.1% temporal:3.9%x264 [info]: coded y,uvDC,uvAC intra: 57.1% 82.3% 49.3% inter: 38.6% 57.5% 20.0%x264 [info]: i16 v,h,dc,p: 37% 19% 12% 32%x264 [info]: i8 v,h,dc,ddl,ddr,vr,hd,vl,hu: 22% 15% 18% 6% 6% 9% 8% 8% 9%x264 [info]: i4 v,h,dc,ddl,ddr,vr,hd,vl,hu: 20% 12% 7% 7% 11% 13% 10% 9% 10%x264 [info]: i8c dc,h,v,p: 42% 22% 23% 13%x264 [info]: Weighted P-Frames: Y:8.4% UV:6.6%x264 [info]: ref P L0: 61.5% 14.0% 15.7% 6.4% 2.3% 0.1%x264 [info]: ref B L0: 90.5% 7.7% 1.8%x264 [info]: ref B L1: 96.2% 3.8%x264 [info]: kb/s:15849.36x264 [total]: encoded 104701 frames, 2.29 fps, 15849.36 kb/s
GeneralUnique ID : 199931639106692934337494190057956478347 (0x96696EDCEDAD1FCD85A7DBB9E26A8D8B)Complete name : M:\rip mkv\mband\ghj\Mband_Remusic_UhdtvRip1080p.mkvFormat : MatroskaFormat version : Version 4 / Version 2File size : 7.88 GiBDuration : 1h 9mnOverall bit rate : 16.2 MbpsEncoded date : UTC 2016-03-29 16:12:21Writing application : mkvmerge v8.6.0 ('A Place In Your World') 64bitWriting library : libebml v1.3.3 + libmatroska v1.4.4
VideoID : 1Format : AVCFormat/Info : Advanced Video CodecFormat profile : High@L4.1Format settings, CABAC : YesFormat settings, ReFrames : 4 framesCodec ID : V_MPEG4/ISO/AVCDuration : 1h 9mnBit rate : 15.9 MbpsWidth : 1 920 pixelsHeight : 1 080 pixelsDisplay aspect ratio : 16:9Frame rate mode : ConstantFrame rate : 25.000 fpsColor space : YUVChroma subsampling : 4:2:0Bit depth : 8 bitsScan type : ProgressiveBits/(Pixel*Frame) : 0.306Stream size : 7.73 GiB (98%)Writing library : x264 core 130 r2273 b3065e6Encoding settings : cabac=1 / ref=4 / deblock=1:-1:-1 / analyse=0x3:0x133 / me=umh / subme=10 / psy=1 / psy_rd=1.00:0.13 / mixed_ref=1 / me_range=24 / chroma_me=1 / trellis=2 / 8x8dct=1 / cqm=0 / deadzone=21,11 / fast_pskip=1 / chroma_qp_offset=-3 / threads=6 / lookahead_threads=1 / sliced_threads=0 / nr=0 / decimate=1 / interlaced=0 / bluray_compat=0 / constrained_intra=0 / bframes=9 / b_pyramid=2 / b_adapt=2 / b_bias=0 / direct=3 / weightb=1 / open_gop=0 / weightp=2 / keyint=250 / keyint_min=25 / scenecut=40 / intra_refresh=0 / rc_lookahead=60 / rc=2pass / mbtree=1 / bitrate=15850 / ratetol=1.0 / qcomp=0.60 / qpmin=0 / qpmax=69 / qpstep=4 / cplxblur=20.0 / qblur=0.5 / vbv_maxrate=62500 / vbv_bufsize=50000 / nal_hrd=none / ip_ratio=1.40 / aq=1:1.00Default : YesForced : No
AudioID : 2Format : AACFormat/Info : Advanced Audio CodecFormat profile : LCCodec ID : A_AACDuration : 1h 9mnBit rate : 317 KbpsChannel(s) : 2 channelsChannel positions : Front: L RSampling rate : 48.0 KHzFrame rate : 46.875 fps (1024 spf)Compression mode : LossyDelay relative to video : -350msStream size : 158 MiB (2%)Default : YesForced : No

Раздача от:
Как качать и Как раздавать  ·  Часто задаваемые Вопросы и Ответы (FAQ)