Загружается…
Ошибка

Скачать бесплатно торрент Голос страны / Голос країни (6 сезон) [2016, вокальное шоу, SATRip] 10 выпусков torrent download

Страницы:  1

Ответить на тему
Автор Сообщение

Разум

Голос страны / Голос країни
Дата/Год выпуска: 2016
Страна: Украина
Жанр: вокальное шоу
Продолжительность: 10x120 минут
Перевод: Не требуется
Русские субтитры: нет
Оригинальная аудиодорожка: украинский
Режиссер: Екатерина Осадчая и Юрий Горбунов
Телеканал: 1+1Описание: "Голос страны" - это адаптация голландского формата "The Voice". По правилам проекта, четыре звездных тренера формируют свои команды во время отборов вслепую. Они сидят спинами к сцене и выбирают конкурсантов, ориентируясь исключительно на их вокальные способности. Каждый из наставников может предложить сотрудничество только четырнадцати конкурсантам. После слепых прослушиваний исполнители продолжают борьбу во время следующих этапов - «Боев», «Нокаутов» и «Прямых эфиров».
В шестом сезоне вокального проекта "Голос страны" зрители могут стать ближе к проекту и увидеть, что происходит за кулисами, как участники готовятся к выступлениям, как "платиновая четверка тренеров" Иван Дорн, Потап, Тина Кароль и Святослав Вакарчук взаимодействуют между собой в перерывах между съемками. Украинские композиции составят 60% музыкального наполнения сезона. Как уже успели отметить звездные наставники, уровень музыкальной подготовки участников шестого сезона намного выше, чем в предыдущем сезоне.
Сэмпл: https://www.sendspace.com/file/jr8kou
качество: SATRip
формат: AVI
Видео: Xvid 704x400 (16:9) 25fps ~1536kbps
Аудио: MP3 48000Hz stereo 192kbps

Список выпусков/серий

1. Выпуск 1. Эфир 28 февраля 2016 года.
2. Выпуск 2. Эфир 6 марта 2016 года.
3. Выпуск 3. Эфир 13 марта 2016 года.
4. Выпуск 4. Эфир 20 марта 2016 года.
5. Выпуск 5. Эфир 27 марта 2016 года.
6. Выпуск 6. Эфир 3 апреля 2016 года.
7. Выпуск 7. Эфир 10 апреля 2016 года.
8. Выпуск 8. Эфир 17 апреля 2016 года.
9. Выпуск 9. Эфир 24 апреля 2016 года.
10. Выпуск 10. Эфир 1 мая 2016 года.

MediaInfo

GeneralComplete name : J:\Мои раздачи\Голос страны. 1+1. Сезон 6\Голос страны. 1+1 (2016-02-28).aviFormat : AVIFormat/Info : Audio Video InterleaveFile size : 1.36 GiBDuration : 1h 52mnOverall bit rate : 1 736 Kbps
VideoID : 0Format : MPEG-4 VisualFormat profile : Advanced Simple@L5Format settings, BVOP : 2Format settings, QPel : NoFormat settings, GMC : No warppointsFormat settings, Matrix : Default (H.263)Codec ID : XVIDCodec ID/Hint : XviDDuration : 1h 52mnBit rate : 1 535 KbpsWidth : 704 pixelsHeight : 400 pixelsDisplay aspect ratio : 16:9Frame rate : 25.000 fpsColor space : YUVChroma subsampling : 4:2:0Bit depth : 8 bitsScan type : ProgressiveCompression mode : LossyBits/(Pixel*Frame) : 0.218Stream size : 1.20 GiB (88%)Writing library : XviD 64
AudioID : 1Format : MPEG AudioFormat version : Version 1Format profile : Layer 3Mode : Joint stereoCodec ID : 55Codec ID/Hint : MP3Duration : 1h 52mnBit rate mode : ConstantBit rate : 192 KbpsChannel(s) : 2 channelsSampling rate : 48.0 KHzCompression mode : LossyStream size : 154 MiB (11%)Alignment : Split accross interleavesInterleave, duration : 40 ms (1.00 video frame)Interleave, preload duration : 500 msWriting library : LAME3.98.2ЄЄЄЄЄЄЄЄЄЄ

Скриншоты


Раздача от:
Как качать и Как раздавать  ·  Часто задаваемые Вопросы и Ответы (FAQ)