Загружается…
Ошибка

Скачать бесплатно торрент (Arabic Pop) Amr Diab - 24 Albums - 1988-2016, Flac (tracks+.cue), lossless torrent download

Страницы:  1

Ответить на тему
Автор Сообщение

meloman

Amr Diab - 23 Albums - 1988-2014
Жанр: Arabic Pop
Производитель диска: Египет
Аудио кодек: Flac
Тип рипа: tracks+.cue
Битрейт аудио: lossless
Продолжительность: 16:46:16

1988 - Hala Hala

1988 - Hala Hala
Трэклист:
01. Rahhel (4:35)
02. Maloh (5:14)
03. Yes'ab Alyya (4:54)
04. Owedy Ya Layali (5:29)
05. Keloo' (3:25)
06. Hala Hala (4:41)
07. Meddy Eideak (6:24)
08. Meya Meya (4:44)
09. Al Maktoub Ala Gebbein (5:20)

EAC log

Exact Audio Copy V1.0 beta 3 from 29. August 2011
Отчёт EAC об извлечении, выполненном 22. сентября 2013, 9:58
Amr Diab / Hala Hala
Дисковод: HL-DT-STDVDRAM GH22LS50 Adapter: 1 ID: 0
Режим чтения : Достоверность
Использование точного потока : Да
Отключение кэша аудио : Да
Использование указателей C2 : Нет
Коррекция смещения при чтении : 0
Способность читать области Lead-in и Lead-out : Нет
Заполнение пропущенных сэмплов тишиной : Да
Удаление блоков с тишиной в начале и конце : Нет
При вычислениях CRC использовались нулевые сэмплы : Да
Интерфейс : Встроенный Win32-интерфейс для Win NT/2000
Выходной формат : Внутренние WAV-операции
Формат сэмплов : 44.100 Гц; 16 бит; стерео
TOC извлечённого CD
Трек | Старт | Длительность | Начальный сектор | Конечный сектор
---------------------------------------------------------------------
1 | 0:02.00 | 4:37.32 | 150 | 20956
2 | 4:39.32 | 5:16.23 | 20957 | 44679
3 | 9:55.55 | 4:56.28 | 44680 | 66907
4 | 14:52.08 | 5:31.33 | 66908 | 91765
5 | 20:23.41 | 3:27.18 | 91766 | 107308
6 | 23:50.59 | 4:43.35 | 107309 | 128568
7 | 28:34.19 | 6:26.15 | 128569 | 157533
8 | 35:00.34 | 4:46.10 | 157534 | 178993
9 | 39:46.44 | 5:20.56 | 178994 | 203049
Трек 1, Индекс 1
Пиковый уровень 100.0 %
Скорость извлечения 1.2 X
Качество трека 100.0 %
Копирование... OK
Трек 2, Индекс 1
Пиковый уровень 100.0 %
Скорость извлечения 1.3 X
Качество трека 100.0 %
Копирование... OK
Трек 3, Индекс 1
Пиковый уровень 100.0 %
Скорость извлечения 1.5 X
Качество трека 100.0 %
Копирование... OK
Трек 4, Индекс 1
Пиковый уровень 100.0 %
Скорость извлечения 1.6 X
Качество трека 100.0 %
Копирование... OK
Трек 5, Индекс 1
Пиковый уровень 100.0 %
Скорость извлечения 1.6 X
Качество трека 100.0 %
Копирование... OK
Трек 6, Индекс 1
Пиковый уровень 100.0 %
Скорость извлечения 1.7 X
Качество трека 100.0 %
Копирование... OK
Трек 7, Индекс 1
Пиковый уровень 100.0 %
Скорость извлечения 2.0 X
Качество трека 100.0 %
Копирование... OK
Трек 8, Индекс 1
Пиковый уровень 100.0 %
Скорость извлечения 2.0 X
Качество трека 100.0 %
Копирование... OK
Трек 9, Индекс 1
Пиковый уровень 100.0 %
Скорость извлечения 2.1 X
Качество трека 100.0 %
Копирование... OK
Ошибок не произошло
Конец отчёта
==== Контрольная сумма отчёта 4C34D6F42BC1CF076B3601F199C1F7C4B2FE36E95B02EE7697E0803784772253 ====

CUE log

REM DATE 1988
REM DISCID 760A9109
REM COMMENT "ExactAudioCopy v1.0b3"
PERFORMER "Amr Diab"
TITLE "Hala Hala"
FILE "01 Rahhel.wav" WAVE
TRACK 01 AUDIO
TITLE "Rahhel"
PERFORMER "Amr Diab"
PREGAP 00:02:00
INDEX 01 00:00:00
TRACK 02 AUDIO
TITLE "Maloh"
PERFORMER "Amr Diab"
INDEX 00 04:35:32
FILE "02 Maloh.wav" WAVE
INDEX 01 00:00:00
TRACK 03 AUDIO
TITLE "Yes'ab Alyya"
PERFORMER "Amr Diab"
INDEX 00 05:14:23
FILE "03 Yes'ab Alyya.wav" WAVE
INDEX 01 00:00:00
TRACK 04 AUDIO
TITLE "Owedy Ya Layali"
PERFORMER "Amr Diab"
INDEX 00 04:54:28
FILE "04 Owedy Ya Layali.wav" WAVE
INDEX 01 00:00:00
TRACK 05 AUDIO
TITLE "Keloo'"
PERFORMER "Amr Diab"
INDEX 00 05:29:33
FILE "05 Keloo'.wav" WAVE
INDEX 01 00:00:00
TRACK 06 AUDIO
TITLE "Hala Hala"
PERFORMER "Amr Diab"
INDEX 00 03:25:18
FILE "06 Hala Hala.wav" WAVE
INDEX 01 00:00:00
TRACK 07 AUDIO
TITLE "Meddy Eideak"
PERFORMER "Amr Diab"
INDEX 00 04:41:35
FILE "07 Meddy Eideak.wav" WAVE
INDEX 01 00:00:00
TRACK 08 AUDIO
TITLE "Meya Meya"
PERFORMER "Amr Diab"
INDEX 00 06:24:15
FILE "08 Meya Meya.wav" WAVE
INDEX 01 00:00:00
TRACK 09 AUDIO
TITLE "Al Maktoub Ala Gebbein"
PERFORMER "Amr Diab"
INDEX 00 04:44:10
FILE "09 Al Maktoub Ala Gebbein.wav" WAVE
INDEX 01 00:00:00

1989 - Mayaal

1989 - Mayaal
Трэклист:
01. Mayaal (04:40)
02. Meen Ghairak (05:32)
03. Touba (04:17)
04. Ezzayak (05:49)
05. Awel Ma A'oul (03:39)
06. Kalemini (04:36)
07. Ne'shaq Al Amar (05:42)
08. Leila (06:26)

EAC log

Exact Audio Copy V1.0 beta 3 from 29. August 2011
Отчёт EAC об извлечении, выполненном 23. сентября 2013, 13:22
Amr Diab / Mayaal
Дисковод: HL-DT-STDVDRAM GH22LS50 Adapter: 1 ID: 0
Режим чтения : Достоверность
Использование точного потока : Да
Отключение кэша аудио : Да
Использование указателей C2 : Нет
Коррекция смещения при чтении : 0
Способность читать области Lead-in и Lead-out : Нет
Заполнение пропущенных сэмплов тишиной : Да
Удаление блоков с тишиной в начале и конце : Нет
При вычислениях CRC использовались нулевые сэмплы : Да
Интерфейс : Встроенный Win32-интерфейс для Win NT/2000
Выходной формат : Внутренние WAV-операции
Формат сэмплов : 44.100 Гц; 16 бит; стерео
TOC извлечённого CD
Трек | Старт | Длительность | Начальный сектор | Конечный сектор
---------------------------------------------------------------------
1 | 0:02.00 | 4:42.70 | 150 | 21369
2 | 4:44.70 | 5:34.40 | 21370 | 46459
3 | 10:19.35 | 4:19.06 | 46460 | 65890
4 | 14:38.41 | 5:51.29 | 65891 | 92244
5 | 20:29.70 | 3:41.25 | 92245 | 108844
6 | 24:11.20 | 4:38.29 | 108845 | 129723
7 | 28:49.49 | 5:44.05 | 129724 | 155528
8 | 34:33.54 | 6:26.26 | 155529 | 184504
Трек 1, Индекс 1
Пиковый уровень 60.4 %
Скорость извлечения 1.2 X
Качество трека 100.0 %
Копирование... OK
Трек 2, Индекс 1
Пиковый уровень 64.2 %
Скорость извлечения 1.3 X
Качество трека 100.0 %
Копирование... OK
Трек 3, Индекс 1
Пиковый уровень 61.5 %
Скорость извлечения 1.4 X
Качество трека 100.0 %
Копирование... OK
Трек 4, Индекс 1
Пиковый уровень 56.7 %
Скорость извлечения 1.6 X
Качество трека 100.0 %
Копирование... OK
Трек 5, Индекс 1
Пиковый уровень 74.5 %
Скорость извлечения 1.6 X
Качество трека 100.0 %
Копирование... OK
Трек 6, Индекс 1
Пиковый уровень 79.5 %
Скорость извлечения 1.8 X
Качество трека 100.0 %
Копирование... OK
Трек 7, Индекс 1
Пиковый уровень 78.7 %
Скорость извлечения 1.9 X
Качество трека 100.0 %
Копирование... OK
Трек 8, Индекс 1
Пиковый уровень 76.3 %
Скорость извлечения 2.0 X
Качество трека 100.0 %
Копирование... OK
Ошибок не произошло
Конец отчёта
==== Контрольная сумма отчёта E9ABAA1C11F4AA1B0857FDB3288D0C8651719054F08788BA74C1CFAA5AB8651F ====

CUE log

REM DATE 1989
REM DISCID 5B099A08
REM COMMENT "ExactAudioCopy v1.0b3"
PERFORMER "Amr Diab"
TITLE "Mayaal"
FILE "01 Mayaal.wav" WAVE
TRACK 01 AUDIO
TITLE "Mayaal"
PERFORMER "Amr Diab"
PREGAP 00:02:00
INDEX 01 00:00:00
TRACK 02 AUDIO
TITLE "Meen Ghairak"
PERFORMER "Amr Diab"
INDEX 00 04:40:70
FILE "02 Meen Ghairak.wav" WAVE
INDEX 01 00:00:00
TRACK 03 AUDIO
TITLE "Touba"
PERFORMER "Amr Diab"
INDEX 00 05:32:40
FILE "03 Touba.wav" WAVE
INDEX 01 00:00:00
TRACK 04 AUDIO
TITLE "Ezzayak"
PERFORMER "Amr Diab"
INDEX 00 04:17:06
FILE "04 Ezzayak.wav" WAVE
INDEX 01 00:00:00
TRACK 05 AUDIO
TITLE "Awel Ma A'oul"
PERFORMER "Amr Diab"
INDEX 00 05:49:29
FILE "05 Awel Ma A'oul.wav" WAVE
INDEX 01 00:00:00
TRACK 06 AUDIO
TITLE "Kalemini"
PERFORMER "Amr Diab"
INDEX 00 03:39:25
FILE "06 Kalemini.wav" WAVE
INDEX 01 00:00:00
TRACK 07 AUDIO
TITLE "Ne'shaq Al Amar"
PERFORMER "Amr Diab"
INDEX 00 04:36:29
FILE "07 Ne'shaq Al Amar.wav" WAVE
INDEX 01 00:00:00
TRACK 08 AUDIO
TITLE "Leila"
PERFORMER "Amr Diab"
INDEX 00 05:42:05
FILE "08 Leila.wav" WAVE
INDEX 01 00:00:00

1990 - Matkhafesh

1990 - Matkhafesh
Трэклист:
01. Matkhafesh (4:43)
02. Zay El Zaman (4:15)
03. We Nendam (4:00)
04. Mashghoul (5:52)
05. Rah A'oulak Eih (3:27)
06. Allah Yekhleeki (4:56)
07. Agmal Ma Feeki (4:16)
08. Habiteha (4:17)

EAC log

Exact Audio Copy V1.0 beta 3 from 29. August 2011
Отчёт EAC об извлечении, выполненном 22. сентября 2013, 14:44
Amr Diab / Matkhafesh
Дисковод: HL-DT-STDVDRAM GH22LS50 Adapter: 1 ID: 0
Режим чтения : Достоверность
Использование точного потока : Да
Отключение кэша аудио : Да
Использование указателей C2 : Нет
Коррекция смещения при чтении : 0
Способность читать области Lead-in и Lead-out : Нет
Заполнение пропущенных сэмплов тишиной : Да
Удаление блоков с тишиной в начале и конце : Нет
При вычислениях CRC использовались нулевые сэмплы : Да
Интерфейс : Встроенный Win32-интерфейс для Win NT/2000
Выходной формат : Внутренние WAV-операции
Формат сэмплов : 44.100 Гц; 16 бит; стерео
TOC извлечённого CD
Трек | Старт | Длительность | Начальный сектор | Конечный сектор
---------------------------------------------------------------------
1 | 0:02.00 | 5:54.34 | 150 | 26733
2 | 5:56.34 | 4:17.43 | 26734 | 46051
3 | 10:14.02 | 4:02.19 | 46052 | 64220
4 | 14:16.21 | 4:45.37 | 64221 | 85632
5 | 19:01.58 | 3:29.31 | 85633 | 101338
6 | 22:31.14 | 4:58.16 | 101339 | 123704
7 | 27:29.30 | 4:18.72 | 123705 | 143126
8 | 31:48.27 | 4:17.11 | 143127 | 162412
Трек 1, Индекс 1
Пиковый уровень 94.2 %
Скорость извлечения 1.2 X
Качество трека 100.0 %
Копирование... OK
Трек 2, Индекс 1
Пиковый уровень 92.0 %
Скорость извлечения 1.3 X
Качество трека 100.0 %
Копирование... OK
Трек 3, Индекс 1
Пиковый уровень 97.2 %
Скорость извлечения 1.4 X
Качество трека 100.0 %
Копирование... OK
Трек 4, Индекс 1
Пиковый уровень 94.5 %
Скорость извлечения 1.5 X
Качество трека 100.0 %
Копирование... OK
Трек 5, Индекс 1
Пиковый уровень 96.0 %
Скорость извлечения 1.5 X
Качество трека 100.0 %
Копирование... OK
Трек 6, Индекс 1
Пиковый уровень 98.8 %
Скорость извлечения 1.7 X
Качество трека 100.0 %
Копирование... OK
Трек 7, Индекс 1
Пиковый уровень 93.9 %
Скорость извлечения 1.6 X
Качество трека 99.9 %
Копирование... OK
Трек 8, Индекс 1
Пиковый уровень 94.6 %
Скорость извлечения 1.9 X
Качество трека 100.0 %
Копирование... OK
Ошибок не произошло
Конец отчёта
==== Контрольная сумма отчёта 639CF2569F0DD40CCBB7FE3138CDB30EA92691022483D74EA52AF2F05057B9B0 ====

CUE log

REM DATE 2001
REM DISCID 63087308
REM COMMENT "ExactAudioCopy v1.0b3"
PERFORMER "Amr Diab"
TITLE "Matkhafesh "
FILE "01 Matkhafesh.wav" WAVE
TRACK 01 AUDIO
TITLE "Matkhafesh"
PERFORMER "Amr Diab"
PREGAP 00:02:00
INDEX 01 00:00:00
TRACK 02 AUDIO
TITLE "Zay El Zaman"
PERFORMER "Amr Diab"
INDEX 00 05:52:34
FILE "02 Zay El Zaman.wav" WAVE
INDEX 01 00:00:00
TRACK 03 AUDIO
TITLE "We Nendam"
PERFORMER "Amr Diab"
INDEX 00 04:15:43
FILE "03 We Nendam.wav" WAVE
INDEX 01 00:00:00
TRACK 04 AUDIO
TITLE "Mashghoul"
PERFORMER "Amr Diab"
INDEX 00 04:00:19
FILE "04 Mashghoul.wav" WAVE
INDEX 01 00:00:00
TRACK 05 AUDIO
TITLE "Rah A'oulak Eih"
PERFORMER "Amr Diab"
INDEX 00 04:43:37
FILE "05 Rah A'oulak Eih.wav" WAVE
INDEX 01 00:00:00
TRACK 06 AUDIO
TITLE "Allah Yekhleeki"
PERFORMER "Amr Diab"
INDEX 00 03:27:31
FILE "06 Allah Yekhleeki.wav" WAVE
INDEX 01 00:00:00
TRACK 07 AUDIO
TITLE "Agmal Ma Feeki"
PERFORMER "Amr Diab"
INDEX 00 04:56:16
FILE "07 Agmal Ma Feeki.wav" WAVE
INDEX 01 00:00:00
TRACK 08 AUDIO
TITLE "Habiteha"
PERFORMER "Amr Diab"
INDEX 00 04:16:72
FILE "08 Habiteha.wav" WAVE
INDEX 01 00:00:00

1991 - Habibi

1991 - Habibi
Трэклист:
01. Habibi (4:45)
02. We Ramany El Showk (5:07)
03. Eih Bas Elly Ramaak (5:52)
04. Ela Ma'ak (3:18)
05. Naway Tea'teb (4:59)
06. Akhtartlak (4:34)
07. Ana Aashek (3:33)
08. Mestghrab Leih (4:56)

EAC log

Exact Audio Copy V1.0 beta 3 from 29. August 2011
Отчёт EAC об извлечении, выполненном 22. сентября 2013, 16:04
Amr Diab / Habibi
Дисковод: HL-DT-STDVDRAM GH22LS50 Adapter: 1 ID: 0
Режим чтения : Достоверность
Использование точного потока : Да
Отключение кэша аудио : Да
Использование указателей C2 : Нет
Коррекция смещения при чтении : 0
Способность читать области Lead-in и Lead-out : Нет
Заполнение пропущенных сэмплов тишиной : Да
Удаление блоков с тишиной в начале и конце : Нет
При вычислениях CRC использовались нулевые сэмплы : Да
Интерфейс : Встроенный Win32-интерфейс для Win NT/2000
Выходной формат : Внутренние WAV-операции
Формат сэмплов : 44.100 Гц; 16 бит; стерео
TOC извлечённого CD
Трек | Старт | Длительность | Начальный сектор | Конечный сектор
---------------------------------------------------------------------
1 | 0:02.00 | 4:47.63 | 150 | 21737
2 | 4:49.63 | 5:09.72 | 21738 | 44984
3 | 9:59.60 | 5:54.19 | 44985 | 71553
4 | 15:54.04 | 3:20.08 | 71554 | 86561
5 | 19:14.12 | 5:01.23 | 86562 | 109159
6 | 24:15.35 | 4:36.49 | 109160 | 129908
7 | 28:52.09 | 3:35.25 | 129909 | 146058
8 | 32:27.34 | 4:56.27 | 146059 | 168285
Трек 1, Индекс 1
Пиковый уровень 74.7 %
Скорость извлечения 1.1 X
Качество трека 99.9 %
Копирование... OK
Трек 2, Индекс 1
Пиковый уровень 66.6 %
Скорость извлечения 1.3 X
Качество трека 100.0 %
Копирование... OK
Трек 3, Индекс 1
Пиковый уровень 69.8 %
Скорость извлечения 1.4 X
Качество трека 99.9 %
Копирование... OK
Трек 4, Индекс 1
Пиковый уровень 70.8 %
Скорость извлечения 1.5 X
Качество трека 100.0 %
Копирование... OK
Трек 5, Индекс 1
Пиковый уровень 73.2 %
Скорость извлечения 1.6 X
Качество трека 100.0 %
Копирование... OK
Трек 6, Индекс 1
Пиковый уровень 66.1 %
Скорость извлечения 1.8 X
Качество трека 100.0 %
Копирование... OK
Трек 7, Индекс 1
Пиковый уровень 77.3 %
Скорость извлечения 1.7 X
Качество трека 100.0 %
Копирование... OK
Трек 8, Индекс 1
Пиковый уровень 63.3 %
Скорость извлечения 1.9 X
Качество трека 100.0 %
Копирование... OK
Ошибок не произошло
Конец отчёта
==== Контрольная сумма отчёта 20823078FC1B0812126E7E4185EB2FDC9B24BD7FA0333AA7604EDCF0F3962AC3 ====

CUE log

REM DATE 2001
REM DISCID 6F08C108
REM COMMENT "ExactAudioCopy v1.0b3"
PERFORMER "Amr Diab"
TITLE "Habibi"
FILE "01 Habibi.wav" WAVE
TRACK 01 AUDIO
TITLE "Habibi"
PERFORMER "Amr Diab"
PREGAP 00:02:00
INDEX 01 00:00:00
TRACK 02 AUDIO
TITLE " We Ramany El Showk"
PERFORMER "Amr Diab"
INDEX 00 04:45:63
FILE "02 We Ramany El Showk.wav" WAVE
INDEX 01 00:00:00
TRACK 03 AUDIO
TITLE "Eih Bas Elly Ramaak"
PERFORMER "Amr Diab"
INDEX 00 05:07:72
FILE "03 Eih Bas Elly Ramaak.wav" WAVE
INDEX 01 00:00:00
TRACK 04 AUDIO
TITLE "Ela Ma'ak"
PERFORMER "Amr Diab"
INDEX 00 05:52:19
FILE "04 Ela Ma'ak.wav" WAVE
INDEX 01 00:00:00
TRACK 05 AUDIO
TITLE "Naway Tea'teb"
PERFORMER "Amr Diab"
INDEX 00 03:18:08
FILE "05 Naway Tea'teb.wav" WAVE
INDEX 01 00:00:00
TRACK 06 AUDIO
TITLE "Akhtartlak"
PERFORMER "Amr Diab"
INDEX 00 04:59:23
FILE "06 Akhtartlak.wav" WAVE
INDEX 01 00:00:00
TRACK 07 AUDIO
TITLE "Ana Aashek"
PERFORMER "Amr Diab"
INDEX 00 04:34:49
FILE "07 Ana Aashek.wav" WAVE
INDEX 01 00:00:00
TRACK 08 AUDIO
TITLE "Mestghrab Leih"
PERFORMER "Amr Diab"
INDEX 00 03:33:25
FILE "08 Mestghrab Leih.wav" WAVE
INDEX 01 00:00:00

1992 - Ayamna

1992 - Ayamna
Трэклист:
01. El Mady (4:15)
02. Ayamna (5:00)
03. Rohy Ana (4:04)
04. Erefty Meen Habek (3:34)
05. Lama Kan (3:59)
06. Tab' El Hayah (4:11)
07. Hawak Hayarni (4:17)
08. Galak Alb (3:56)

EAC log

Exact Audio Copy V1.0 beta 3 from 29. August 2011
Отчёт EAC об извлечении, выполненном 22. сентября 2013, 19:49
Amr Diab / Ayamna
Дисковод: HL-DT-STDVDRAM GH22LS50 Adapter: 1 ID: 0
Режим чтения : Достоверность
Использование точного потока : Да
Отключение кэша аудио : Да
Использование указателей C2 : Нет
Коррекция смещения при чтении : 0
Способность читать области Lead-in и Lead-out : Нет
Заполнение пропущенных сэмплов тишиной : Да
Удаление блоков с тишиной в начале и конце : Нет
При вычислениях CRC использовались нулевые сэмплы : Да
Интерфейс : Встроенный Win32-интерфейс для Win NT/2000
Выходной формат : Внутренние WAV-операции
Формат сэмплов : 44.100 Гц; 16 бит; стерео
TOC извлечённого CD
Трек | Старт | Длительность | Начальный сектор | Конечный сектор
---------------------------------------------------------------------
1 | 0:02.00 | 4:17.61 | 150 | 19485
2 | 4:19.61 | 5:02.24 | 19486 | 42159
3 | 9:22.10 | 4:06.73 | 42160 | 60682
4 | 13:29.08 | 3:36.58 | 60683 | 76940
5 | 17:05.66 | 4:01.27 | 76941 | 95042
6 | 21:07.18 | 4:13.24 | 95043 | 114041
7 | 25:20.42 | 4:19.58 | 114042 | 133524
8 | 29:40.25 | 3:56.36 | 133525 | 151260
Трек 1, Индекс 1
Пиковый уровень 83.1 %
Скорость извлечения 1.2 X
Качество трека 100.0 %
Копирование... OK
Трек 2, Индекс 1
Пиковый уровень 85.5 %
Скорость извлечения 1.3 X
Качество трека 100.0 %
Копирование... OK
Трек 3, Индекс 1
Пиковый уровень 82.8 %
Скорость извлечения 1.4 X
Качество трека 100.0 %
Копирование... OK
Трек 4, Индекс 1
Пиковый уровень 81.2 %
Скорость извлечения 1.2 X
Качество трека 99.9 %
Копирование... OK
Трек 5, Индекс 1
Пиковый уровень 85.4 %
Скорость извлечения 1.4 X
Качество трека 99.9 %
Копирование... OK
Трек 6, Индекс 1
Пиковый уровень 98.4 %
Скорость извлечения 1.5 X
Качество трека 99.9 %
Копирование... OK
Трек 7, Индекс 1
Пиковый уровень 93.5 %
Скорость извлечения 1.8 X
Качество трека 100.0 %
Копирование... OK
Трек 8, Индекс 1
Пиковый уровень 89.5 %
Скорость извлечения 1.8 X
Качество трека 100.0 %
Копирование... OK
Ошибок не произошло
Конец отчёта
==== Контрольная сумма отчёта F3219E9AAE2CBAAE42D31608EBB6095CB4DC2DEBA8D83A3C373C85933C5DCE04 ====

CUE log

REM DATE 1992
REM DISCID 5E07DE08
REM COMMENT "ExactAudioCopy v1.0b3"
PERFORMER "Amr Diab"
TITLE "Ayamna"
FILE "01 El Mady.wav" WAVE
TRACK 01 AUDIO
TITLE "El Mady"
PERFORMER "Amr Diab"
PREGAP 00:02:00
INDEX 01 00:00:00
TRACK 02 AUDIO
TITLE "Ayamna"
PERFORMER "Amr Diab"
INDEX 00 04:15:61
FILE "02 Ayamna.wav" WAVE
INDEX 01 00:00:00
TRACK 03 AUDIO
TITLE "Rohy Ana"
PERFORMER "Amr Diab"
INDEX 00 05:00:24
FILE "03 Rohy Ana.wav" WAVE
INDEX 01 00:00:00
TRACK 04 AUDIO
TITLE "Erefty Meen Habek"
PERFORMER "Amr Diab"
INDEX 00 04:04:73
FILE "04 Erefty Meen Habek.wav" WAVE
INDEX 01 00:00:00
TRACK 05 AUDIO
TITLE "Lama Kan"
PERFORMER "Amr Diab"
INDEX 00 03:34:58
FILE "05 Lama Kan.wav" WAVE
INDEX 01 00:00:00
TRACK 06 AUDIO
TITLE "Tab' El Hayah"
PERFORMER "Amr Diab"
INDEX 00 03:59:27
FILE "06 Tab' El Hayah.wav" WAVE
INDEX 01 00:00:00
TRACK 07 AUDIO
TITLE "Hawak Hayarni"
PERFORMER "Amr Diab"
INDEX 00 04:11:24
FILE "07 Hawak Hayarni.wav" WAVE
INDEX 01 00:00:00
TRACK 08 AUDIO
TITLE "Galak Alb"
PERFORMER "Amr Diab"
INDEX 00 04:17:58
FILE "08 Galak Alb.wav" WAVE
INDEX 01 00:00:00

1994 - We Youmouni

1994 - We Youmouni
Трэклист:
01. We Yloumouni (5:08)
02. Enwani (4:43)
03. Hawalek (4:24)
04. Malhash Hal (4:23)
05. Ahlef Bellayaly (4:26)
06. Matfakkarnish (4:44)
07. El-Eyoun (3:55)
08. Wala Ellayaly Tehoun (4:01)

EAC log

Exact Audio Copy V1.0 beta 3 from 29. August 2011
Отчёт EAC об извлечении, выполненном 22. сентября 2013, 20:45
Amr Diab / We Yloumouni
Дисковод: HL-DT-STDVDRAM GH22LS50 Adapter: 1 ID: 0
Режим чтения : Достоверность
Использование точного потока : Да
Отключение кэша аудио : Да
Использование указателей C2 : Нет
Коррекция смещения при чтении : 0
Способность читать области Lead-in и Lead-out : Нет
Заполнение пропущенных сэмплов тишиной : Да
Удаление блоков с тишиной в начале и конце : Нет
При вычислениях CRC использовались нулевые сэмплы : Да
Интерфейс : Встроенный Win32-интерфейс для Win NT/2000
Выходной формат : Внутренние WAV-операции
Формат сэмплов : 44.100 Гц; 16 бит; стерео
TOC извлечённого CD
Трек | Старт | Длительность | Начальный сектор | Конечный сектор
---------------------------------------------------------------------
1 | 0:02.00 | 5:10.40 | 150 | 23439
2 | 5:12.40 | 4:45.40 | 23440 | 44854
3 | 9:58.05 | 4:26.25 | 44855 | 64829
4 | 14:24.30 | 4:25.70 | 64830 | 84774
5 | 18:50.25 | 4:28.17 | 84775 | 104891
6 | 23:18.42 | 4:46.40 | 104892 | 126381
7 | 28:05.07 | 3:57.73 | 126382 | 144229
8 | 32:03.05 | 4:01.25 | 144230 | 162329
Трек 1, Индекс 1
Пиковый уровень 98.1 %
Скорость извлечения 1.2 X
Качество трека 100.0 %
Копирование... OK
Трек 2, Индекс 1
Пиковый уровень 100.0 %
Скорость извлечения 1.2 X
Качество трека 99.9 %
Копирование... OK
Трек 3, Индекс 1
Пиковый уровень 98.2 %
Скорость извлечения 1.4 X
Качество трека 100.0 %
Копирование... OK
Трек 4, Индекс 1
Пиковый уровень 97.7 %
Скорость извлечения 1.3 X
Качество трека 99.9 %
Копирование... OK
Трек 5, Индекс 1
Пиковый уровень 97.0 %
Скорость извлечения 1.4 X
Качество трека 99.9 %
Копирование... OK
Трек 6, Индекс 1
Пиковый уровень 98.9 %
Скорость извлечения 1.5 X
Качество трека 99.9 %
Копирование... OK
Трек 7, Индекс 1
Пиковый уровень 97.6 %
Скорость извлечения 1.7 X
Качество трека 100.0 %
Копирование... OK
Трек 8, Индекс 1
Пиковый уровень 98.8 %
Скорость извлечения 1.7 X
Качество трека 99.9 %
Копирование... OK
Ошибок не произошло
Конец отчёта
==== Контрольная сумма отчёта E4D7992D589E7A66DFD385E569A7FDA798E32671876A51F2D28343B386511F99 ====

CUE log

REM DATE 1994
REM DISCID 59087208
REM COMMENT "ExactAudioCopy v1.0b3"
PERFORMER "Amr Diab"
TITLE "We Yloumouni"
FILE "01 We Yloumouni.wav" WAVE
TRACK 01 AUDIO
TITLE "We Yloumouni"
PERFORMER "Amr Diab"
PREGAP 00:02:00
INDEX 01 00:00:00
TRACK 02 AUDIO
TITLE "Enwani"
PERFORMER "Amr Diab"
INDEX 00 05:08:40
FILE "02 Enwani.wav" WAVE
INDEX 01 00:00:00
TRACK 03 AUDIO
TITLE "Hawalek"
PERFORMER "Amr Diab"
INDEX 00 04:43:40
FILE "03 Hawalek.wav" WAVE
INDEX 01 00:00:00
TRACK 04 AUDIO
TITLE "Malhash Hal"
PERFORMER "Amr Diab"
INDEX 00 04:24:25
FILE "04 Malhash Hal.wav" WAVE
INDEX 01 00:00:00
TRACK 05 AUDIO
TITLE "Ahlef Bellayaly"
PERFORMER "Amr Diab"
INDEX 00 04:23:70
FILE "05 Ahlef Bellayaly.wav" WAVE
INDEX 01 00:00:00
TRACK 06 AUDIO
TITLE "Matfakkarnish"
PERFORMER "Amr Diab"
INDEX 00 04:26:17
FILE "06 Matfakkarnish.wav" WAVE
INDEX 01 00:00:00
TRACK 07 AUDIO
TITLE "El-Eyoun"
PERFORMER "Amr Diab"
INDEX 00 04:44:40
FILE "07 El-Eyoun.wav" WAVE
INDEX 01 00:00:00
TRACK 08 AUDIO
TITLE "Wala Ellayaly Tehoun"
PERFORMER "Amr Diab"
INDEX 00 03:55:73
FILE "08 Wala Ellayaly Tehoun.wav" WAVE
INDEX 01 00:00:00

1996 - Nour El Ain

1996 - Nour El Ain
Трэклист:
01. Nour El Ain (05:09)
02. Moush Hade'af (05:22)
03. Nafs El Makan (04:37)
04. Laila Men Omri (04:54)
05. Ayzeen Yeghayyarook (05:53)
06. Men Awwal Merra [Mehtajelha] (04:35)
07. Ew'idni (05:25)
08. Yoo Menhom (03:48)

EAC log

Exact Audio Copy V1.0 beta 3 from 29. August 2011
Отчёт EAC об извлечении, выполненном 23. сентября 2013, 8:38
Amr Diab / Nour el Ain
Дисковод: HL-DT-STDVDRAM GH22LS50 Adapter: 1 ID: 0
Режим чтения : Достоверность
Использование точного потока : Да
Отключение кэша аудио : Да
Использование указателей C2 : Нет
Коррекция смещения при чтении : 0
Способность читать области Lead-in и Lead-out : Нет
Заполнение пропущенных сэмплов тишиной : Да
Удаление блоков с тишиной в начале и конце : Нет
При вычислениях CRC использовались нулевые сэмплы : Да
Интерфейс : Встроенный Win32-интерфейс для Win NT/2000
Выходной формат : Внутренние WAV-операции
Формат сэмплов : 44.100 Гц; 16 бит; стерео
TOC извлечённого CD
Трек | Старт | Длительность | Начальный сектор | Конечный сектор
---------------------------------------------------------------------
1 | 0:02.00 | 5:11.54 | 150 | 23528
2 | 5:13.54 | 5:24.44 | 23529 | 47872
3 | 10:38.23 | 4:39.37 | 47873 | 68834
4 | 15:17.60 | 4:56.22 | 68835 | 91056
5 | 20:14.07 | 5:55.37 | 91057 | 117718
6 | 26:09.44 | 4:37.45 | 117719 | 138538
7 | 30:47.14 | 5:27.18 | 138539 | 163081
8 | 36:14.32 | 3:48.43 | 163082 | 180224
Трек 1, Индекс 1
Пиковый уровень 99.8 %
Скорость извлечения 1.2 X
Качество трека 100.0 %
Копирование... OK
Трек 2, Индекс 1
Пиковый уровень 99.9 %
Скорость извлечения 1.3 X
Качество трека 100.0 %
Копирование... OK
Трек 3, Индекс 1
Пиковый уровень 97.9 %
Скорость извлечения 1.4 X
Качество трека 100.0 %
Копирование... OK
Трек 4, Индекс 1
Пиковый уровень 98.0 %
Скорость извлечения 1.6 X
Качество трека 100.0 %
Копирование... OK
Трек 5, Индекс 1
Пиковый уровень 98.1 %
Скорость извлечения 1.7 X
Качество трека 100.0 %
Копирование... OK
Трек 6, Индекс 1
Пиковый уровень 94.0 %
Скорость извлечения 1.8 X
Качество трека 100.0 %
Копирование... OK
Трек 7, Индекс 1
Пиковый уровень 96.0 %
Скорость извлечения 1.9 X
Качество трека 100.0 %
Копирование... OK
Трек 8, Индекс 1
Пиковый уровень 98.9 %
Скорость извлечения 1.9 X
Качество трека 100.0 %
Копирование... OK
Ошибок не произошло
Конец отчёта
==== Контрольная сумма отчёта 98F485BD760FAECDD9AC2F7492D9AED966BCB99AD9121C9CD9917FD33B2ADC6A ====

CUE log

REM DATE 1996
REM DISCID 68096108
REM COMMENT "ExactAudioCopy v1.0b3"
PERFORMER "Amr Diab"
TITLE "Nour el Ain"
FILE "01 Nour El Ain.wav" WAVE
TRACK 01 AUDIO
TITLE "Nour El Ain"
PERFORMER "Amr Diab"
PREGAP 00:02:00
INDEX 01 00:00:00
TRACK 02 AUDIO
TITLE "Moush Hade'af"
PERFORMER "Amr Diab"
INDEX 00 05:09:54
FILE "02 Moush Hade'af.wav" WAVE
INDEX 01 00:00:00
TRACK 03 AUDIO
TITLE "Nafs el Makan"
PERFORMER "Amr Diab"
INDEX 00 05:22:44
FILE "03 Nafs el Makan.wav" WAVE
INDEX 01 00:00:00
TRACK 04 AUDIO
TITLE "Laila Men Omri"
PERFORMER "Amr Diab"
INDEX 00 04:37:37
FILE "04 Laila Men Omri.wav" WAVE
INDEX 01 00:00:00
TRACK 05 AUDIO
TITLE "Ayzeen Yeghayyarook"
PERFORMER "Amr Diab"
INDEX 00 04:54:22
FILE "05 Ayzeen Yeghayyarook.wav" WAVE
INDEX 01 00:00:00
TRACK 06 AUDIO
TITLE "Men Awwal Merra (Mehtajelha)"
PERFORMER "Amr Diab"
INDEX 00 05:53:37
FILE "06 Men Awwal Merra (Mehtajelha).wav" WAVE
INDEX 01 00:00:00
TRACK 07 AUDIO
TITLE "Ew'idni"
PERFORMER "Amr Diab"
INDEX 00 04:35:45
FILE "07 Ew'idni.wav" WAVE
INDEX 01 00:00:00
TRACK 08 AUDIO
TITLE "Yoo Menhom"
PERFORMER "Amr Diab"
INDEX 00 05:25:18
FILE "08 Yoo Menhom.wav" WAVE
INDEX 01 00:00:00

1997 - Habibe-Remixes

1997 - Habibe-Remixes
Трэклист:
01. Habibe [7'' Master] (04:01)
02. Habibe [12'' Club Mix] (06:47)
03. Habibe [Vocal Dub] (08:01)
04. Habibe [Shazz House Mix] (06:16)
05. Habibe [Shazz Deep Dub Mix] (06:01)
06. Habibe [Klubbheads Mix] (06:42)
07. Habibe [Rhythm Masters Vocal Club Mix] (06:21)
08. Habibe [Rhythm Masters Dis-Funktional Mix] (06:59)
09. Habibe [Matthew Roberts Phunk Force Shake the Room Mix] (05:45)
10. Habibe [Matthew Roberts Phunk Force 'Flying Tonight' Mix] (06:49)

EAC log

Exact Audio Copy V1.0 beta 3 from 29. August 2011
Отчёт EAC об извлечении, выполненном 23. сентября 2013, 9:21
Amr Diab / Habibe: The Remix Album
Дисковод: HL-DT-STDVDRAM GH22LS50 Adapter: 1 ID: 0
Режим чтения : Достоверность
Использование точного потока : Да
Отключение кэша аудио : Да
Использование указателей C2 : Нет
Коррекция смещения при чтении : 0
Способность читать области Lead-in и Lead-out : Нет
Заполнение пропущенных сэмплов тишиной : Да
Удаление блоков с тишиной в начале и конце : Нет
При вычислениях CRC использовались нулевые сэмплы : Да
Интерфейс : Встроенный Win32-интерфейс для Win NT/2000
Выходной формат : Внутренние WAV-операции
Формат сэмплов : 44.100 Гц; 16 бит; стерео
TOC извлечённого CD
Трек | Старт | Длительность | Начальный сектор | Конечный сектор
---------------------------------------------------------------------
1 | 0:02.00 | 4:03.04 | 150 | 18378
2 | 4:05.04 | 6:49.03 | 18379 | 49056
3 | 10:54.07 | 8:03.03 | 49057 | 85284
4 | 18:57.10 | 6:18.04 | 85285 | 113638
5 | 25:15.14 | 6:03.04 | 113639 | 140867
6 | 31:18.18 | 6:44.03 | 140868 | 171170
7 | 38:02.21 | 6:23.03 | 171171 | 199898
8 | 44:25.24 | 7:01.04 | 199899 | 231477
9 | 51:26.28 | 5:47.03 | 231478 | 257505
10 | 57:13.31 | 6:49.03 | 257506 | 288183
Трек 1, Индекс 1
Пиковый уровень 89.6 %
Скорость извлечения 1.0 X
Качество трека 99.9 %
Копирование... OK
Трек 2, Индекс 1
Пиковый уровень 96.8 %
Скорость извлечения 1.3 X
Качество трека 99.9 %
Копирование... OK
Трек 3, Индекс 1
Пиковый уровень 91.8 %
Скорость извлечения 1.5 X
Качество трека 99.9 %
Копирование... OK
Трек 4, Индекс 1
Пиковый уровень 99.9 %
Скорость извлечения 1.7 X
Качество трека 100.0 %
Копирование... OK
Трек 5, Индекс 1
Пиковый уровень 99.9 %
Скорость извлечения 1.7 X
Качество трека 100.0 %
Копирование... OK
Трек 6, Индекс 1
Пиковый уровень 99.9 %
Скорость извлечения 1.7 X
Качество трека 100.0 %
Копирование... OK
Трек 7, Индекс 1
Пиковый уровень 99.9 %
Скорость извлечения 1.7 X
Качество трека 100.0 %
Копирование... OKо
Трек 8, Индекс 1
Пиковый уровень 99.9 %
Скорость извлечения 1.7 X
Качество трека 100.0 %
Копирование... OK
Трек 9, Индекс 1
Пиковый уровень 99.9 %
Скорость извлечения 1.7 X
Качество трека 100.0 %
Копирование... OK
Трек 10, Индекс 1
Пиковый уровень 99.9 %
Скорость извлечения 1.7 X
Качество трека 100.0 %
Копирование... OK
Ошибок не произошло
Конец отчёта
==== Контрольная сумма отчёта 5501BA67C5BEDE785503AC16954091AEA770284E8A2F996B0A8837F5AD9255B2 ====

CUE log

REM DATE 1998
REM DISCID 960F000A
REM COMMENT "ExactAudioCopy v1.0b3"
PERFORMER "Amr Diab"
TITLE "Habibe: The Remix Album"
FILE "01 Habibe (7'' Master).wav" WAVE
TRACK 01 AUDIO
TITLE "Habibe (7' Master)"
PERFORMER "Amr Diab"
PREGAP 00:02:00
INDEX 01 00:00:00
TRACK 02 AUDIO
TITLE "Habibe (12' club mix)"
PERFORMER "Amr Diab"
INDEX 00 04:01:04
FILE "02 Habibe (12'' club mix).wav" WAVE
INDEX 01 00:00:00
TRACK 03 AUDIO
TITLE "Habibe (vocal dub)"
PERFORMER "Amr Diab"
INDEX 00 06:47:03
FILE "03 Habibe (vocal dub).wav" WAVE
INDEX 01 00:00:00
TRACK 04 AUDIO
TITLE "Habibe (Shazz House Mix)"
PERFORMER "Amr Diab"
INDEX 00 08:01:03
FILE "04 Habibe (Shazz House Mix).wav" WAVE
INDEX 01 00:00:00
TRACK 05 AUDIO
TITLE "Habibe (Shazz Deep Dub Mix)"
PERFORMER "Amr Diab"
INDEX 00 06:16:04
FILE "05 Habibe (Shazz Deep Dub Mix).wav" WAVE
INDEX 01 00:00:00
TRACK 06 AUDIO
TITLE "Habibe (Klubbheads Mix)"
PERFORMER "Amr Diab"
INDEX 00 06:01:04
FILE "06 Habibe (Klubbheads Mix).wav" WAVE
INDEX 01 00:00:00
TRACK 07 AUDIO
TITLE "Habibe (Rhythm Masters Vocal Club Mix)"
PERFORMER "Amr Diab"
INDEX 00 06:42:03
FILE "07 Habibe (Rhythm Masters Vocal Club Mix).wav" WAVE
INDEX 01 00:00:00
TRACK 08 AUDIO
TITLE "Habibe (Rhythm Masters Dis-Funktional Mix)"
PERFORMER "Amr Diab"
INDEX 00 06:21:03
FILE "08 Habibe (Rhythm Masters Dis-Funktional Mix).wav" WAVE
INDEX 01 00:00:00
TRACK 09 AUDIO
TITLE "Habibe (Matthew Roberts Phunk Force Shake the Room Mix)"
PERFORMER "Amr Diab"
INDEX 00 06:59:04
FILE "09 Habibe (Matthew Roberts Phunk Force Shake the Room Mix).wav" WAVE
INDEX 01 00:00:00
TRACK 10 AUDIO
TITLE "Habibe (Matthew Roberts Phunk Force 'Frying Tonight' Mix)"
PERFORMER "Amr Diab"
INDEX 00 05:45:03
FILE "10 Habibe (Matthew Roberts Phunk Force ''Frying Tonight'' Mix).wav" WAVE
INDEX 01 00:00:00

1996 - 2003 - Greatest Hits

1996 - 2003 - Greatest Hits
Трэклист:
01. Wala Ala Balah [0:05:10.18]
02. Albey (with Khaled) [0:04:23.57]
03. Tamally Maak [0:04:31.65]
04. El Alem Alla [0:04:07.53]
05. Ana Aish [0:03:48.30]
06. Nour el Ain [0:05:08.03]
07. Ana [0:04:57.00]
08. Eleos (duet with Angela Dimitriou) [0:03:19.71]
09. Ana Moham Kibirt Sugheir [0:04:02.55]
10. Wea hua amla eah [0:04:43.37]
11. Amarain [0:04:28.45]
12. Alby Ekhtarak [0:04:14.06]
13. Khalleeny Ganbak [0:05:16.40]
14. Aktar Wahed [0:04:30.34]
15. Ba'ed El Layali [0:04:29.33]
16. Allem Alby [0:03:31.24]

EAC log

Exact Audio Copy V0.99 prebeta 3 from 28. July 2007
Отчёт EAC об извлечении, выполненном 4. ноября 2007, 23:32
Amr Diab / Greatest Hits (1996 - 2003)
Дисковод: TOSHIBA DVD-ROM SD-R1202 Adapter: 1 ID: 0
Режим чтения : Достоверность
Использование точного потока : Да
Отключение кэша аудио : Да
Использование указателей C2 : Нет
Коррекция смещения при чтении : -472
Способность читать области Lead-in и Lead-out : Нет
Заполнение пропущенных сэмплов тишиной : Да
Удаление блоков с тишиной в начале и конце : Нет
При вычислениях CRC использовались нулевые сэмплы : Нет
Интерфейс : Встроенный Win32-интерфейс для Win NT/2000
Выходной формат : Monkey's Audio (без потерь)
Выбранный битрейт : Fast Lossless Compression
Качество : Высокий
Добавление ID3-тэга : Да
Утилита сжатия : C:\Program Files\Monkey's Audio\MAC.exe
TOC извлечённого CD
Трек | Старт | Длительность | Начальный сектор | Конечный сектор
---------------------------------------------------------------------
1 | 0:00.00 | 5:10.18 | 0 | 23267
2 | 5:10.18 | 4:23.57 | 23268 | 43049
3 | 9:34.00 | 4:31.65 | 43050 | 63439
4 | 14:05.65 | 4:07.53 | 63440 | 82017
5 | 18:13.43 | 3:48.30 | 82018 | 99147
6 | 22:01.73 | 5:08.03 | 99148 | 122250
7 | 27:10.01 | 4:57.00 | 122251 | 144525
8 | 32:07.01 | 3:19.71 | 144526 | 159521
9 | 35:26.72 | 4:02.55 | 159522 | 177726
10 | 39:29.52 | 4:43.37 | 177727 | 198988
11 | 44:13.14 | 4:28.45 | 198989 | 219133
12 | 48:41.59 | 4:14.06 | 219134 | 238189
13 | 52:55.65 | 5:16.40 | 238190 | 261929
14 | 58:12.30 | 4:30.34 | 261930 | 282213
15 | 62:42.64 | 4:29.33 | 282214 | 302421
16 | 67:12.22 | 3:31.24 | 302422 | 318270
17 | 73:15.46 | 5:16.53 | 329671 | 353423
Характеристики диапазона извлечения и сообщения об ошибках
Выбранный диапазон
Имя файла E:\torrents\out\Amr Diab Greatest Hits 1996-2003\Amr Diab - Greatest Hits (1996 - 2003).wav
Пиковый уровень 100.0 %
Качество диапазона 99.9 %
CRC копии 9297560C
Копирование... OK
Ошибок не произошло
Конец отчёта

CUE log

REM DISCID FE126811
REM COMMENT "ExactAudioCopy v0.99pb3"
PERFORMER "Amr Diab"
TITLE "Greatest Hits (1996 - 2003)"
FILE "Amr Diab - Greatest Hits (1996 - 2003).ape" WAVE
TRACK 01 AUDIO
TITLE "Wala Ala Balah"
PERFORMER "Amr Diab"
INDEX 01 00:00:00
TRACK 02 AUDIO
TITLE "Albey (with Khaled)"
PERFORMER "Amr Diab"
INDEX 00 05:08:18
INDEX 01 05:10:18
TRACK 03 AUDIO
TITLE "Tamally Maak"
PERFORMER "Amr Diab"
INDEX 00 09:32:00
INDEX 01 09:34:00
TRACK 04 AUDIO
TITLE "El Alem Alla"
PERFORMER "Amr Diab"
INDEX 00 14:03:65
INDEX 01 14:05:65
TRACK 05 AUDIO
TITLE "Ana Aish"
PERFORMER "Amr Diab"
INDEX 00 18:11:43
INDEX 01 18:13:43
TRACK 06 AUDIO
TITLE "Nour el Ain"
PERFORMER "Amr Diab"
INDEX 00 21:59:73
INDEX 01 22:01:73
TRACK 07 AUDIO
TITLE "Ana"
PERFORMER "Amr Diab"
INDEX 00 27:08:01
INDEX 01 27:10:01
TRACK 08 AUDIO
TITLE "Eleos (duet with Angela Dimitriou)"
PERFORMER "Amr Diab"
INDEX 00 32:05:01
INDEX 01 32:07:01
TRACK 09 AUDIO
TITLE "Ana Moham Kibirt Sugheir"
PERFORMER "Amr Diab"
INDEX 00 35:24:72
INDEX 01 35:26:72
TRACK 10 AUDIO
TITLE "Wea hua amla eah"
PERFORMER "Amr Diab"
INDEX 00 39:27:52
INDEX 01 39:29:52
TRACK 11 AUDIO
TITLE "Amarain"
PERFORMER "Amr Diab"
INDEX 00 44:11:14
INDEX 01 44:13:14
TRACK 12 AUDIO
TITLE "Alby Ekhtarak"
PERFORMER "Amr Diab"
INDEX 00 48:39:59
INDEX 01 48:41:59
TRACK 13 AUDIO
TITLE "Khalleeny Ganbak"
PERFORMER "Amr Diab"
INDEX 00 52:53:65
INDEX 01 52:55:65
TRACK 14 AUDIO
TITLE "Aktar Wahed"
PERFORMER "Amr Diab"
INDEX 00 58:10:30
INDEX 01 58:12:30
TRACK 15 AUDIO
TITLE "Ba'ed El Layali"
PERFORMER "Amr Diab"
INDEX 00 62:40:64
INDEX 01 62:42:64
TRACK 16 AUDIO
TITLE "Allem Alby"
PERFORMER "Amr Diab"
INDEX 00 67:10:22
INDEX 01 67:12:22

1997 - Habiby

1997 - Habiby
Трэклист:
01. Amr Diab - Nour El Ain (5:04)
02. Amr Diab - Tamally Maaak (4:28)
03. Amr Diab - Habibi (4:04)
04. Amr Diab - Rageen (5:01)
05. Amr Diab - El Alem Alla (4:04)
06. Amr Diab - Moush Hade Af (5:06)
07. Amr Diab - Adini Regeatelek (3:36)
08. Amr Diab - Ei Yaani (5:17)
09. Amr Diab - Aktar Wahed Beyhedak (4:13)
10. Amr Diab - Baed El-layalley (3:41)
11. Amr Diab - Habibi(136bpm) (3:21)
12. Amr Diab - Rajeen(beirutBiloma Remix) (5:01)
13. Amr Diab - Intervention Divine(amr Diab &ampWala Ala Baloh) (5:06)
14. Amr Diab - Ojos Asi(thunder Mix)(amr Diab&ampShakira) (10:13)
15. Amr Diab - Nour El Ain(beirutBiloma Remix) (4:52)

EAC log

Exact Audio Copy V0.99 prebeta 5 from 4. May 2009
Отчёт EAC об извлечении, выполненном 3. января 2010, 9:41
Amr Diab / Habibi
Дисковод: HL-DT-STDVDRAM GH22LS50 Adapter: 0 ID: 0
Режим чтения : Достоверность
Использование точного потока : Да
Отключение кэша аудио : Да
Использование указателей C2 : Нет
Коррекция смещения при чтении : 667
Способность читать области Lead-in и Lead-out : Нет
Заполнение пропущенных сэмплов тишиной : Да
Удаление блоков с тишиной в начале и конце : Нет
При вычислениях CRC использовались нулевые сэмплы : Да
Интерфейс : Установленный внешний ASPI-интерфейс
Обработка зазоров : Добавлено к предыдущему треку
Выходной формат : Внутренние WAV-операции
Формат сэмплов : 44.100 Гц; 16 бит; стерео
TOC извлечённого CD
Трек | Старт | Длительность | Начальный сектор | Конечный сектор
---------------------------------------------------------------------
1 | 0:00.00 | 5:04.23 | 0 | 22822
2 | 5:04.23 | 4:28.37 | 22823 | 42959
3 | 9:32.60 | 4:04.74 | 42960 | 61333
4 | 13:37.59 | 5:01.07 | 61334 | 83915
5 | 18:38.66 | 4:04.42 | 83916 | 102257
6 | 22:43.33 | 5:06.20 | 102258 | 125227
7 | 27:49.53 | 3:36.34 | 125228 | 141461
8 | 31:26.12 | 5:17.18 | 141462 | 165254
9 | 36:43.30 | 4:13.65 | 165255 | 184294
10 | 40:57.20 | 3:41.06 | 184295 | 200875
11 | 44:38.26 | 3:21.13 | 200876 | 215963
12 | 47:59.39 | 5:01.09 | 215964 | 238547
13 | 53:00.48 | 5:06.18 | 238548 | 261515
14 | 58:06.66 | 10:13.27 | 261516 | 307517
15 | 68:20.18 | 4:52.33 | 307518 | 329450
Трек 1
Имя файла C:\Documents and Settings\ldv\Рабочий стол\Habiby\01-Nour El Ain.wav
Длина предзазора 0:00:02.00
Пиковый уровень 74.2 %
Качество трека 100.0 %
CRC копии 3D06A6E0
Трек не обнаружен в базе AccurateRip
Копирование... OK
Трек 2
Имя файла C:\Documents and Settings\ldv\Рабочий стол\Habiby\02-Tamally Maaak.wav
Пиковый уровень 73.1 %
Качество трека 100.0 %
CRC копии 446E8B7C
Трек не обнаружен в базе AccurateRip
Копирование... OK
Трек 3
Имя файла C:\Documents and Settings\ldv\Рабочий стол\Habiby\03-Habibi.wav
Пиковый уровень 72.7 %
Качество трека 100.0 %
CRC копии AE63C242
Трек не обнаружен в базе AccurateRip
Копирование... OK
Трек 4
Имя файла C:\Documents and Settings\ldv\Рабочий стол\Habiby\04-Rageen.wav
Пиковый уровень 74.4 %
Качество трека 100.0 %
CRC копии 80694A86
Трек не обнаружен в базе AccurateRip
Копирование... OK
Трек 5
Имя файла C:\Documents and Settings\ldv\Рабочий стол\Habiby\05-El Alem Alla.wav
Пиковый уровень 72.3 %
Качество трека 100.0 %
CRC копии 8DE036D2
Трек не обнаружен в базе AccurateRip
Копирование... OK
Трек 6
Имя файла C:\Documents and Settings\ldv\Рабочий стол\Habiby\06-Moush Hade Af.wav
Пиковый уровень 71.8 %
Качество трека 100.0 %
CRC копии 08E3E4F4
Трек не обнаружен в базе AccurateRip
Копирование... OK
Трек 7
Имя файла C:\Documents and Settings\ldv\Рабочий стол\Habiby\07-Adini Regeatelek.wav
Пиковый уровень 71.5 %
Качество трека 100.0 %
CRC копии E87FAFBA
Трек не обнаружен в базе AccurateRip
Копирование... OK
Трек 8
Имя файла C:\Documents and Settings\ldv\Рабочий стол\Habiby\08-Ei Yaani.wav
Пиковый уровень 70.6 %
Качество трека 100.0 %
CRC копии 96C1C138
Трек не обнаружен в базе AccurateRip
Копирование... OK
Трек 9
Имя файла C:\Documents and Settings\ldv\Рабочий стол\Habiby\09-Aktar Wahed Beyhedak.wav
Пиковый уровень 75.3 %
Качество трека 100.0 %
CRC копии E446A8A8
Трек не обнаружен в базе AccurateRip
Копирование... OK
Трек 10
Имя файла C:\Documents and Settings\ldv\Рабочий стол\Habiby\10-Baed El-layalley.wav
Пиковый уровень 69.3 %
Качество трека 100.0 %
CRC копии 3BDDAC71
Трек не обнаружен в базе AccurateRip
Копирование... OK
Трек 11
Имя файла C:\Documents and Settings\ldv\Рабочий стол\Habiby\11-Habibi(136bpm).wav
Пиковый уровень 74.0 %
Качество трека 100.0 %
CRC копии 86EEF9A4
Трек не обнаружен в базе AccurateRip
Копирование... OK
Трек 12
Имя файла C:\Documents and Settings\ldv\Рабочий стол\Habiby\12-Rajeen(beirutBiloma Remix).wav
Пиковый уровень 73.5 %
Качество трека 100.0 %
CRC копии 228209F5
Трек не обнаружен в базе AccurateRip
Копирование... OK
Трек 13
Имя файла C:\Documents and Settings\ldv\Рабочий стол\Habiby\13-Intervention Divine(amr Diab &Wala Ala Baloh).wav
Пиковый уровень 76.1 %
Качество трека 100.0 %
CRC копии 0778E3BD
Трек не обнаружен в базе AccurateRip
Копирование... OK
Трек 14
Имя файла C:\Documents and Settings\ldv\Рабочий стол\Habiby\14-Ojos Asi(thunder Mix)(amr Diab&Shakira).wav
Пиковый уровень 73.7 %
Качество трека 100.0 %
CRC копии B0F98811
Трек не обнаружен в базе AccurateRip
Копирование... OK
Трек 15
Имя файла C:\Documents and Settings\ldv\Рабочий стол\Habiby\15-Nour El Ain(beirutBiloma Remix).wav
Пиковый уровень 74.9 %
Качество трека 100.0 %
CRC копии FD7568D6
Трек не обнаружен в базе AccurateRip
Копирование... OK
Ни одного трека нет в базе AccurateRip
Ошибок не произошло
Конец отчёта

CUE log

REM DATE 1997
REM DISCID D411280F
REM COMMENT "ExactAudioCopy v0.99pb5"
PERFORMER "Amr Diab"
TITLE "Habibi"
FILE "01-Nour El Ain.wav" WAVE
TRACK 01 AUDIO
TITLE "Nour El Ain"
PERFORMER "Amr Diab"
INDEX 01 00:00:00
FILE "02-Tamally Maaak.wav" WAVE
TRACK 02 AUDIO
TITLE "Tamally Maaak"
PERFORMER "Amr Diab"
INDEX 01 00:00:00
FILE "03-Habibi.wav" WAVE
TRACK 03 AUDIO
TITLE "Habibi"
PERFORMER "Amr Diab"
INDEX 01 00:00:00
FILE "04-Rageen.wav" WAVE
TRACK 04 AUDIO
TITLE "Rageen"
PERFORMER "Amr Diab"
INDEX 01 00:00:00
FILE "05-El Alem Alla.wav" WAVE
TRACK 05 AUDIO
TITLE "El Alem Alla"
PERFORMER "Amr Diab"
INDEX 01 00:00:00
FILE "06-Moush Hade Af.wav" WAVE
TRACK 06 AUDIO
TITLE "Moush Hade Af"
PERFORMER "Amr Diab"
INDEX 01 00:00:00
FILE "07-Adini Regeatelek.wav" WAVE
TRACK 07 AUDIO
TITLE "Adini Regeatelek"
PERFORMER "Amr Diab"
INDEX 01 00:00:00
FILE "08-Ei Yaani.wav" WAVE
TRACK 08 AUDIO
TITLE "Ei Yaani"
PERFORMER "Amr Diab"
INDEX 01 00:00:00
FILE "09-Aktar Wahed Beyhedak.wav" WAVE
TRACK 09 AUDIO
TITLE "Aktar Wahed Beyhedak"
PERFORMER "Amr Diab"
INDEX 01 00:00:00
FILE "10-Baed El-layalley.wav" WAVE
TRACK 10 AUDIO
TITLE "Baed El-layalley"
PERFORMER "Amr Diab"
INDEX 01 00:00:00
FILE "11-Habibi(136bpm).wav" WAVE
TRACK 11 AUDIO
TITLE "Habibi(136bpm)"
PERFORMER "Amr Diab"
INDEX 01 00:00:00
FILE "12-Rajeen(beirutBiloma Remix).wav" WAVE
TRACK 12 AUDIO
TITLE "Rajeen(beirutBiloma Remix)"
PERFORMER "Amr Diab"
INDEX 01 00:00:00
FILE "13-Intervention Divine(amr Diab &Wala Ala Baloh).wav" WAVE
TRACK 13 AUDIO
TITLE "Intervention Divine(amr Diab &Wala Ala Baloh)"
PERFORMER "Amr Diab"
INDEX 01 00:00:00
FILE "14-Ojos Asi(thunder Mix)(amr Diab&Shakira).wav" WAVE
TRACK 14 AUDIO
TITLE "Ojos Asi(thunder Mix)(amr Diab&Shakira)"
PERFORMER "Amr Diab"
INDEX 01 00:00:00
FILE "15-Nour El Ain(beirutBiloma Remix).wav" WAVE
TRACK 15 AUDIO
TITLE "Nour El Ain(beirutBiloma Remix)"
PERFORMER "Amr Diab"
INDEX 01 00:00:00

1998 - Awedony

1998 - Awedony
Треклист:
01. Awedony (5:20)
02. Khalast Feek Kol Al-Kalam (4:59)
03. Al-Malak El-Barea (3:54)
04. Enta Yali Bahebak (5:23)
05. Nary (Ya Habeba) (4:47)
06. Laialy El-Omr (5:12)
07. Weghalawtac (3:50)
08. Melk Edeak (4:32)

EAC log

Exact Audio Copy V1.0 beta 3 from 29. August 2011
Отчёт EAC об извлечении, выполненном 22. сентября 2013, 7:15
Amr Diab / Awedony
Дисковод: HL-DT-STDVDRAM GH22LS50 Adapter: 1 ID: 0
Режим чтения : Достоверность
Использование точного потока : Да
Отключение кэша аудио : Да
Использование указателей C2 : Нет
Коррекция смещения при чтении : 0
Способность читать области Lead-in и Lead-out : Нет
Заполнение пропущенных сэмплов тишиной : Да
Удаление блоков с тишиной в начале и конце : Нет
При вычислениях CRC использовались нулевые сэмплы : Да
Интерфейс : Встроенный Win32-интерфейс для Win NT/2000
Обработка зазоров : Не обнаружено, добавлено к предыдущему треку
Выходной формат : Внутренние WAV-операции
Формат сэмплов : 44.100 Гц; 16 бит; стерео
TOC извлечённого CD
Трек | Старт | Длительность | Начальный сектор | Конечный сектор
---------------------------------------------------------------------
1 | 0:02.00 | 5:22.01 | 150 | 24300
2 | 5:24.01 | 5:01.73 | 24301 | 46948
3 | 10:25.74 | 3:56.14 | 46949 | 64662
4 | 14:22.13 | 5:25.34 | 64663 | 89071
5 | 19:47.47 | 4:49.52 | 89072 | 110798
6 | 24:37.24 | 5:14.36 | 110799 | 134384
7 | 29:51.60 | 3:52.44 | 134385 | 151828
8 | 33:44.29 | 4:32.20 | 151829 | 172248
Трек 1
Имя файла C:\Documents and Settings\ldv.LDV-HOME\Рабочий стол\01 Awedony.wav
Пиковый уровень 100.0 %
Скорость извлечения 1.1 X
Качество трека 99.9 %
CRC копии 8D2F4341
Копирование... OK
Трек 2
Имя файла C:\Documents and Settings\ldv.LDV-HOME\Рабочий стол\02 Khalast Feek Kol Al-Kalam.wav
Пиковый уровень 100.0 %
Скорость извлечения 1.3 X
Качество трека 100.0 %
CRC копии 9E7055B4
Копирование... OK
Трек 3
Имя файла C:\Documents and Settings\ldv.LDV-HOME\Рабочий стол\03 Al-Malak El-Barea.wav
Пиковый уровень 100.0 %
Скорость извлечения 1.4 X
Качество трека 100.0 %
CRC копии 95C1992C
Копирование... OK
Трек 4
Имя файла C:\Documents and Settings\ldv.LDV-HOME\Рабочий стол\04 Enta Yali Bahebak.wav
Пиковый уровень 100.0 %
Скорость извлечения 1.6 X
Качество трека 100.0 %
CRC копии 03675185
Копирование... OK
Трек 5
Имя файла C:\Documents and Settings\ldv.LDV-HOME\Рабочий стол\05 Nary (Ya Habeba).wav
Пиковый уровень 99.9 %
Скорость извлечения 1.7 X
Качество трека 100.0 %
CRC копии 7532718B
Копирование... OK
Трек 6
Имя файла C:\Documents and Settings\ldv.LDV-HOME\Рабочий стол\06 Laialy El-Omr.wav
Пиковый уровень 99.9 %
Скорость извлечения 1.8 X
Качество трека 100.0 %
CRC копии 3CFD15E9
Копирование... OK
Трек 7
Имя файла C:\Documents and Settings\ldv.LDV-HOME\Рабочий стол\07 Weghalawtac.wav
Пиковый уровень 100.0 %
Скорость извлечения 1.8 X
Качество трека 100.0 %
CRC копии 11F9E1A9
Копирование... OK
Трек 8
Имя файла C:\Documents and Settings\ldv.LDV-HOME\Рабочий стол\08 Melk Edeak.wav
Пиковый уровень 100.0 %
Скорость извлечения 1.7 X
Качество трека 99.9 %
CRC копии 806B6938
Копирование... OK
Ошибок не произошло
Конец отчёта
==== Контрольная сумма отчёта 0DDA332AA26C47E7948BA31645762DC9EC678082BF240B2E002B6C46FF8263A3 ====

CUE log

REM DISCID 7608F608
REM COMMENT "ExactAudioCopy v1.0b3"
PERFORMER "Amr Diab"
TITLE "Awedony"
FILE "01 Awedony.wav" WAVE
TRACK 01 AUDIO
TITLE "Awedony"
PERFORMER "Amr Diab"
PREGAP 00:02:00
INDEX 01 00:00:00
TRACK 02 AUDIO
TITLE "Khalast Feek Kol Al-Kalam"
PERFORMER "Amr Diab"
INDEX 00 05:20:01
FILE "02 Khalast Feek Kol Al-Kalam.wav" WAVE
INDEX 01 00:00:00
TRACK 03 AUDIO
TITLE "Al-Malak El-Barea"
PERFORMER "Amr Diab"
INDEX 00 04:59:73
FILE "03 Al-Malak El-Barea.wav" WAVE
INDEX 01 00:00:00
TRACK 04 AUDIO
TITLE "Enta Yali Bahebak"
PERFORMER "Amr Diab"
INDEX 00 03:54:14
FILE "04 Enta Yali Bahebak.wav" WAVE
INDEX 01 00:00:00
TRACK 05 AUDIO
TITLE "Nary (Ya Habeba)"
PERFORMER "Amr Diab"
INDEX 00 05:23:34
FILE "05 Nary (Ya Habeba).wav" WAVE
INDEX 01 00:00:00
TRACK 06 AUDIO
TITLE "Laialy El-Omr"
PERFORMER "Amr Diab"
INDEX 00 04:47:52
FILE "06 Laialy El-Omr.wav" WAVE
INDEX 01 00:00:00
TRACK 07 AUDIO
TITLE "Weghalawtac"
PERFORMER "Amr Diab"
INDEX 00 05:12:36
FILE "07 Weghalawtac.wav" WAVE
INDEX 01 00:00:00
TRACK 08 AUDIO
TITLE "Melk Edeak"
PERFORMER "Amr Diab"
INDEX 00 03:50:44
FILE "08 Melk Edeak.wav" WAVE
INDEX 01 00:00:00

1999 - Amarain

1999 - Amarain
Трэклист:
01. Amarain (04:27)
02. Ana (04:57)
03. Alby (04:24)
04. Bahibak Akter (03:38)
05. Betwhashny (03:51)
06. Welsa Betheboh (04:42)
07. Khalik Fakrny (03:29)
08. Hikayaty (03:56)

EAC log

Exact Audio Copy V0.99 prebeta 5 from 4. May 2009
Отчёт EAC об извлечении, выполненном 2. января 2010, 21:06
Amr Diab / Amarain
Дисковод: HL-DT-STDVDRAM GH22LS50 Adapter: 0 ID: 0
Режим чтения : Достоверность
Использование точного потока : Да
Отключение кэша аудио : Да
Использование указателей C2 : Нет
Коррекция смещения при чтении : 667
Способность читать области Lead-in и Lead-out : Нет
Заполнение пропущенных сэмплов тишиной : Да
Удаление блоков с тишиной в начале и конце : Нет
При вычислениях CRC использовались нулевые сэмплы : Да
Интерфейс : Установленный внешний ASPI-интерфейс
Обработка зазоров : Добавлено к предыдущему треку
Выходной формат : Внутренние WAV-операции
Формат сэмплов : 44.100 Гц; 16 бит; стерео
TOC извлечённого CD
Трек | Старт | Длительность | Начальный сектор | Конечный сектор
---------------------------------------------------------------------
1 | 0:00.00 | 4:27.56 | 0 | 20080
2 | 4:27.56 | 4:57.12 | 20081 | 42367
3 | 9:24.68 | 4:24.06 | 42368 | 62173
4 | 13:48.74 | 3:38.01 | 62174 | 78524
5 | 17:27.00 | 3:51.01 | 78525 | 95850
6 | 21:18.01 | 4:42.19 | 95851 | 117019
7 | 26:00.20 | 3:29.21 | 117020 | 132715
8 | 29:29.41 | 3:56.51 | 132716 | 150466
Трек 1
Имя файла C:\Documents and Settings\ldv\Рабочий стол\Amarain\01-Amarain.wav
Длина предзазора 0:00:02.00
Пиковый уровень 100.0 %
Качество трека 100.0 %
CRC теста 1359E320
CRC копии 1359E320
Трек не обнаружен в базе AccurateRip
Копирование... OK
Трек 2
Имя файла C:\Documents and Settings\ldv\Рабочий стол\Amarain\02-Ana.wav
Длина предзазора 0:00:02.00
Пиковый уровень 100.0 %
Качество трека 100.0 %
CRC теста 691C812E
CRC копии 691C812E
Трек не обнаружен в базе AccurateRip
Копирование... OK
Трек 3
Имя файла C:\Documents and Settings\ldv\Рабочий стол\Amarain\03-Albey.wav
Длина предзазора 0:00:02.00
Пиковый уровень 100.0 %
Качество трека 99.9 %
CRC теста 43750524
CRC копии 43750524
Трек не обнаружен в базе AccurateRip
Копирование... OK
Трек 4
Имя файла C:\Documents and Settings\ldv\Рабочий стол\Amarain\04-Bahibak Aktar.wav
Длина предзазора 0:00:02.00
Пиковый уровень 100.0 %
Качество трека 99.9 %
CRC теста 77BD07A4
CRC копии 77BD07A4
Трек не обнаружен в базе AccurateRip
Копирование... OK
Трек 5
Имя файла C:\Documents and Settings\ldv\Рабочий стол\Amarain\05-Betuhashney.wav
Длина предзазора 0:00:02.00
Пиковый уровень 100.0 %
Качество трека 100.0 %
CRC теста 4AA0396E
CRC копии 4AA0396E
Трек не обнаружен в базе AccurateRip
Копирование... OK
Трек 6
Имя файла C:\Documents and Settings\ldv\Рабочий стол\Amarain\06-Welsa Bethibah.wav
Длина предзазора 0:00:02.00
Пиковый уровень 100.0 %
Качество трека 99.9 %
CRC теста 4A48DFAA
CRC копии 4A48DFAA
Трек не обнаружен в базе AccurateRip
Копирование... OK
Трек 7
Имя файла C:\Documents and Settings\ldv\Рабочий стол\Amarain\07-Khalik Fakirney.wav
Длина предзазора 0:00:02.00
Пиковый уровень 100.0 %
Качество трека 100.0 %
CRC теста 16686DFD
CRC копии 16686DFD
Трек не обнаружен в базе AccurateRip
Копирование... OK
Трек 8
Имя файла C:\Documents and Settings\ldv\Рабочий стол\Amarain\08-Hikayatey.wav
Длина предзазора 0:00:01.74
Пиковый уровень 100.0 %
Качество трека 100.0 %
CRC теста 4760CA16
CRC копии 4760CA16
Трек не обнаружен в базе AccurateRip
Копирование... OK
Ни одного трека нет в базе AccurateRip
Ошибок не произошло
Конец отчёта

CUE log

REM DATE 1999
REM DISCID 6607D608
REM COMMENT "ExactAudioCopy v0.99pb5"
PERFORMER "Amr Diab"
TITLE "Amarain"
FILE "01-Amarain.wav" WAVE
TRACK 01 AUDIO
TITLE "Amarain"
PERFORMER "Amr Diab"
INDEX 01 00:00:00
TRACK 02 AUDIO
TITLE "Ana"
PERFORMER "Amr Diab"
INDEX 00 04:25:56
FILE "02-Ana.wav" WAVE
INDEX 01 00:00:00
TRACK 03 AUDIO
TITLE "Albey"
PERFORMER "Amr Diab"
INDEX 00 04:55:12
FILE "03-Albey.wav" WAVE
INDEX 01 00:00:00
TRACK 04 AUDIO
TITLE "Bahibak Aktar"
PERFORMER "Amr Diab"
INDEX 00 04:22:06
FILE "04-Bahibak Aktar.wav" WAVE
INDEX 01 00:00:00
TRACK 05 AUDIO
TITLE "Betuhashney"
PERFORMER "Amr Diab"
INDEX 00 03:36:01
FILE "05-Betuhashney.wav" WAVE
INDEX 01 00:00:00
TRACK 06 AUDIO
TITLE "Welsa Bethibah"
PERFORMER "Amr Diab"
INDEX 00 03:49:01
FILE "06-Welsa Bethibah.wav" WAVE
INDEX 01 00:00:00
TRACK 07 AUDIO
TITLE "Khalik Fakirney"
PERFORMER "Amr Diab"
INDEX 00 04:40:19
FILE "07-Khalik Fakirney.wav" WAVE
INDEX 01 00:00:00
TRACK 08 AUDIO
TITLE "Hikayatey"
PERFORMER "Amr Diab"
INDEX 00 03:27:22
FILE "08-Hikayatey.wav" WAVE
INDEX 01 00:00:00

2000 - Tamally Maak

2000 - Tamally Maak
Трэклист:
01. Elalam Alla (04:04)
02. Tamally Maak (04:28)
03. Keda Eny Einak (04:12)
04. We Heya Amla Eah Delwet (04:41)
05. Senean (04:28)
06. Aamal Aeh (04:30)
07. Law Can Yerdeak (04:24)
08. Baateref (04:10)
09. Kalby Ekhtarak (04:10)
10. Saaban Alaya (03:42)

EAC log

Exact Audio Copy V1.0 beta 3 from 29. August 2011
Отчёт EAC об извлечении, выполненном 23. сентября 2013, 11:43
Amr Diab / Tamally Maak
Дисковод: HL-DT-STDVDRAM GH22LS50 Adapter: 1 ID: 0
Режим чтения : Достоверность
Использование точного потока : Да
Отключение кэша аудио : Да
Использование указателей C2 : Нет
Коррекция смещения при чтении : 0
Способность читать области Lead-in и Lead-out : Нет
Заполнение пропущенных сэмплов тишиной : Да
Удаление блоков с тишиной в начале и конце : Нет
При вычислениях CRC использовались нулевые сэмплы : Да
Интерфейс : Встроенный Win32-интерфейс для Win NT/2000
Выходной формат : Внутренние WAV-операции
Формат сэмплов : 44.100 Гц; 16 бит; стерео
TOC извлечённого CD
Трек | Старт | Длительность | Начальный сектор | Конечный сектор
---------------------------------------------------------------------
1 | 0:02.00 | 4:06.15 | 150 | 18614
2 | 4:08.15 | 4:30.60 | 18615 | 38924
3 | 8:39.00 | 4:14.56 | 38925 | 58030
4 | 12:53.56 | 4:43.14 | 58031 | 79269
5 | 17:36.70 | 4:30.66 | 79270 | 99585
6 | 22:07.61 | 4:32.63 | 99586 | 120048
7 | 26:40.49 | 4:26.25 | 120049 | 140023
8 | 31:06.74 | 4:12.43 | 140024 | 158966
9 | 35:19.42 | 4:12.41 | 158967 | 177907
10 | 39:32.08 | 3:42.04 | 177908 | 194561
Трек 1, Индекс 1
Пиковый уровень 100.0 %
Скорость извлечения 1.2 X
Качество трека 100.0 %
Копирование... OK
Трек 2, Индекс 1
Пиковый уровень 100.0 %
Скорость извлечения 1.3 X
Качество трека 100.0 %
Копирование... OK
Трек 3, Индекс 1
Пиковый уровень 100.0 %
Скорость извлечения 1.4 X
Качество трека 100.0 %
Копирование... OK
Трек 4, Индекс 1
Пиковый уровень 100.0 %
Скорость извлечения 1.4 X
Качество трека 99.9 %
Копирование... OK
Трек 5, Индекс 1
Пиковый уровень 100.0 %
Скорость извлечения 1.6 X
Качество трека 100.0 %
Копирование... OK
Трек 6, Индекс 1
Пиковый уровень 100.0 %
Скорость извлечения 1.7 X
Качество трека 100.0 %
Копирование... OK
Трек 7, Индекс 1
Пиковый уровень 100.0 %
Скорость извлечения 1.8 X
Качество трека 100.0 %
Копирование... OK
Трек 8, Индекс 1
Пиковый уровень 100.0 %
Скорость извлечения 1.9 X
Качество трека 100.0 %
Копирование... OK
Трек 9, Индекс 1
Пиковый уровень 100.0 %
Скорость извлечения 1.9 X
Качество трека 100.0 %
Копирование... OK
Трек 10, Индекс 1
Пиковый уровень 100.0 %
Скорость извлечения 2.0 X
Качество трека 100.0 %
Копирование... OK
Ошибок не произошло
Конец отчёта
==== Контрольная сумма отчёта 71F8078EA52C502B8984717916C3121EA0DCAFE6C13EF250B70F8306EA32C949 ====

CUE log

REM DATE 2000
REM DISCID 790A200A
REM COMMENT "ExactAudioCopy v1.0b3"
PERFORMER "Amr Diab"
TITLE "Tamally Maak"
FILE "01 Elalam Alla.wav" WAVE
TRACK 01 AUDIO
TITLE "Elalam Alla"
PERFORMER "Amr Diab"
PREGAP 00:02:00
INDEX 01 00:00:00
TRACK 02 AUDIO
TITLE "Tamally Maak"
PERFORMER "Amr Diab"
INDEX 00 04:04:15
FILE "02 Tamally Maak.wav" WAVE
INDEX 01 00:00:00
TRACK 03 AUDIO
TITLE "Keda Eny Einak"
PERFORMER "Amr Diab"
INDEX 00 04:28:60
FILE "03 Keda Eny Einak.wav" WAVE
INDEX 01 00:00:00
TRACK 04 AUDIO
TITLE "We Heya Amla Eah Delwet"
PERFORMER "Amr Diab"
INDEX 00 04:12:56
FILE "04 We Heya Amla Eah Delwet.wav" WAVE
INDEX 01 00:00:00
TRACK 05 AUDIO
TITLE "Senean"
PERFORMER "Amr Diab"
INDEX 00 04:41:14
FILE "05 Senean.wav" WAVE
INDEX 01 00:00:00
TRACK 06 AUDIO
TITLE "Aamal Aeh"
PERFORMER "Amr Diab"
INDEX 00 04:28:66
FILE "06 Aamal Aeh.wav" WAVE
INDEX 01 00:00:00
TRACK 07 AUDIO
TITLE "Law Can Yerdeak"
PERFORMER "Amr Diab"
INDEX 00 04:30:63
FILE "07 Law Can Yerdeak.wav" WAVE
INDEX 01 00:00:00
TRACK 08 AUDIO
TITLE "Baataref"
PERFORMER "Amr Diab"
INDEX 00 04:24:25
FILE "08 Baataref.wav" WAVE
INDEX 01 00:00:00
TRACK 09 AUDIO
TITLE "Kalby Ekhtarak"
PERFORMER "Amr Diab"
INDEX 00 04:10:43
FILE "09 Kalby Ekhtarak.wav" WAVE
INDEX 01 00:00:00
TRACK 10 AUDIO
TITLE "Saaban Alaya"
PERFORMER "Amr Diab"
INDEX 00 04:10:41
FILE "10 Saaban Alaya.wav" WAVE
INDEX 01 00:00:00

2001 - Aktar Wahed

2001 - Aktar Wahed
Трэклист:
01. Wala Ala Baloh (05:12)
09. Ahebek (04:31)
03. Kan Tayeb (05:21)
04. Baed Ellayaly (04:30)
05. Olt Eah (04:03)
06. Wala Lelah (04:07)
07. Adeni Regetelek (03:41)
08. Sadakny Khalas (03:51)
09. Ahebek (04:33)
10. Ya Habiby La (03:52)

EAC log

Exact Audio Copy V0.99 prebeta 5 from 4. May 2009
Отчёт EAC об извлечении, выполненном 2. января 2010, 14:14
Amr Diab / Aktar Wahed
Дисковод: HL-DT-STDVDRAM GH22LS50 Adapter: 0 ID: 0
Режим чтения : Достоверность
Использование точного потока : Да
Отключение кэша аудио : Да
Использование указателей C2 : Нет
Коррекция смещения при чтении : 667
Способность читать области Lead-in и Lead-out : Нет
Заполнение пропущенных сэмплов тишиной : Да
Удаление блоков с тишиной в начале и конце : Нет
При вычислениях CRC использовались нулевые сэмплы : Да
Интерфейс : Установленный внешний ASPI-интерфейс
Обработка зазоров : Добавлено к предыдущему треку
Выходной формат : Внутренние WAV-операции
Формат сэмплов : 44.100 Гц; 16 бит; стерео
TOC извлечённого CD
Трек | Старт | Длительность | Начальный сектор | Конечный сектор
---------------------------------------------------------------------
1 | 0:00.00 | 5:12.04 | 0 | 23403
2 | 5:12.04 | 4:31.53 | 23404 | 43781
3 | 9:43.57 | 5:21.63 | 43782 | 67919
4 | 15:05.45 | 4:30.64 | 67920 | 88233
5 | 19:36.34 | 4:03.14 | 88234 | 106472
6 | 23:39.48 | 4:07.43 | 106473 | 125040
7 | 27:47.16 | 3:41.69 | 125041 | 141684
8 | 31:29.10 | 3:51.22 | 141685 | 159031
9 | 35:20.32 | 4:33.14 | 159032 | 179520
10 | 39:53.46 | 3:52.19 | 179521 | 196939
Трек 1
Имя файла C:\Documents and Settings\ldv\Рабочий стол\Aktar wahed\01-Wala Ala Baloh.wav
Длина предзазора 0:00:02.00
Пиковый уровень 97.7 %
Качество трека 100.0 %
CRC копии D2DF89E5
Точное извлечение (достоверность 2) [1E1CB4D4]
Копирование... OK
Трек 2
Имя файла C:\Documents and Settings\ldv\Рабочий стол\Aktar wahed\02-Aktar Wahed.wav
Длина предзазора 0:00:04.05
Пиковый уровень 97.7 %
Качество трека 100.0 %
CRC копии 872C01AF
Точное извлечение (достоверность 2) [AC7A0E08]
Копирование... OK
Трек 3
Имя файла C:\Documents and Settings\ldv\Рабочий стол\Aktar wahed\03-Kan Tayeb.wav
Длина предзазора 0:00:02.03
Пиковый уровень 97.7 %
Качество трека 100.0 %
CRC копии BAEAB420
Точное извлечение (достоверность 2) [67ACE5A8]
Копирование... OK
Трек 4
Имя файла C:\Documents and Settings\ldv\Рабочий стол\Aktar wahed\04-Baed Ellayaly.wav
Длина предзазора 0:00:02.03
Пиковый уровень 97.7 %
Качество трека 100.0 %
CRC копии 4428DA21
Точное извлечение (достоверность 2) [670EC3BA]
Копирование... OK
Трек 5
Имя файла C:\Documents and Settings\ldv\Рабочий стол\Aktar wahed\05-Olt Eah.wav
Длина предзазора 0:00:02.03
Пиковый уровень 97.7 %
Качество трека 100.0 %
CRC копии 5076C9C8
Точное извлечение (достоверность 2) [F0F21ECE]
Копирование... OK
Трек 6
Имя файла C:\Documents and Settings\ldv\Рабочий стол\Aktar wahed\06-Wala Lelah.wav
Длина предзазора 0:00:02.03
Пиковый уровень 97.7 %
Качество трека 100.0 %
CRC копии F0B98D6A
Точное извлечение (достоверность 2) [6974A1D5]
Копирование... OK
Трек 7
Имя файла C:\Documents and Settings\ldv\Рабочий стол\Aktar wahed\07-Adeni Regetelek.wav
Длина предзазора 0:00:03.04
Пиковый уровень 97.7 %
Качество трека 100.0 %
CRC копии 0AB85522
Точное извлечение (достоверность 2) [1C1C92DF]
Копирование... OK
Трек 8
Имя файла C:\Documents and Settings\ldv\Рабочий стол\Aktar wahed\08-Sadakny Khalas.wav
Длина предзазора 0:00:02.03
Пиковый уровень 97.7 %
Качество трека 100.0 %
CRC копии D81641CE
Точное извлечение (достоверность 2) [123EACA0]
Копирование... OK
Трек 9
Имя файла C:\Documents and Settings\ldv\Рабочий стол\Aktar wahed\09-Ahebek.wav
Длина предзазора 0:00:03.04
Пиковый уровень 97.7 %
Качество трека 100.0 %
CRC копии 646D7191
Точное извлечение (достоверность 2) [B5EC5D6D]
Копирование... OK
Трек 10
Имя файла C:\Documents and Settings\ldv\Рабочий стол\Aktar wahed\10-Ya Habiby La.wav
Длина предзазора 0:00:03.04
Пиковый уровень 97.7 %
Качество трека 100.0 %
CRC копии 98C56E68
Точное извлечение (достоверность 2) [D56C417B]
Копирование... OK
Все треки извлечены точно
Ошибок не произошло
Конец отчёта

CUE log

REM GENRE Ethnic
REM DATE 2001
REM DISCID 880A410A
REM COMMENT "ExactAudioCopy v0.99pb5"
PERFORMER "Amr Diab"
TITLE "Aktar Wahed"
FILE "01-Wala Ala Baloh.wav" WAVE
TRACK 01 AUDIO
TITLE "Wala Ala Baloh"
PERFORMER "Amr Diab"
INDEX 01 00:00:00
TRACK 02 AUDIO
TITLE "Aktar Wahed"
PERFORMER "Amr Diab"
INDEX 00 05:07:74
FILE "02-Aktar Wahed.wav" WAVE
INDEX 01 00:00:00
TRACK 03 AUDIO
TITLE "Kan Tayeb"
PERFORMER "Amr Diab"
INDEX 00 04:29:50
FILE "03-Kan Tayeb.wav" WAVE
INDEX 01 00:00:00
TRACK 04 AUDIO
TITLE "Baed Ellayaly"
PERFORMER "Amr Diab"
INDEX 00 05:19:60
FILE "04-Baed Ellayaly.wav" WAVE
INDEX 01 00:00:00
TRACK 05 AUDIO
TITLE "Olt Eah"
PERFORMER "Amr Diab"
INDEX 00 04:28:61
FILE "05-Olt Eah.wav" WAVE
INDEX 01 00:00:00
TRACK 06 AUDIO
TITLE "Wala Lelah"
PERFORMER "Amr Diab"
INDEX 00 04:01:11
FILE "06-Wala Lelah.wav" WAVE
INDEX 01 00:00:00
TRACK 07 AUDIO
TITLE "Adeni Regetelek"
PERFORMER "Amr Diab"
INDEX 00 04:04:39
FILE "07-Adeni Regetelek.wav" WAVE
INDEX 01 00:00:00
TRACK 08 AUDIO
TITLE "Sadakny Khalas"
PERFORMER "Amr Diab"
INDEX 00 03:39:66
FILE "08-Sadakny Khalas.wav" WAVE
INDEX 01 00:00:00
TRACK 09 AUDIO
TITLE "Ahebek"
PERFORMER "Amr Diab"
INDEX 00 03:48:18
FILE "09-Ahebek.wav" WAVE
INDEX 01 00:00:00
TRACK 10 AUDIO
TITLE "Ya Habiby La"
PERFORMER "Amr Diab"
INDEX 00 04:30:10
FILE "10-Ya Habiby La.wav" WAVE
INDEX 01 00:00:00

2003 - Allem Alby

2003 - Allem Alby
Трэклист:
01. Allem Alby (3:34)
02. Ana Ayesh (3:48)
03. Ally el Wadaa (3:16)
04. Ya Kinzy (3:35)
05. Te'dar Tetkallem (4:56)
06. Law Ash'any (4:24)
07. Allemny Hawak (3:22)
08. Habibi Ya Omry (5:05)
09. Enta Ma Oltesh Leh (3:39)
10. Hanneit (4:17)
11. Kollohom (3:58)
12. Khalleeny Gangbak (5:19)
13. Bonustrack - Allem Alby (Remix) (4:12)

EAC log

Exact Audio Copy V0.99 prebeta 5 from 4. May 2009
Отчёт EAC об извлечении, выполненном 2. января 2010, 19:40
Amr Diab / Allem Alby
Дисковод: HL-DT-STDVDRAM GH22LS50 Adapter: 0 ID: 0
Режим чтения : Достоверность
Использование точного потока : Да
Отключение кэша аудио : Да
Использование указателей C2 : Нет
Коррекция смещения при чтении : 667
Способность читать области Lead-in и Lead-out : Нет
Заполнение пропущенных сэмплов тишиной : Да
Удаление блоков с тишиной в начале и конце : Нет
При вычислениях CRC использовались нулевые сэмплы : Да
Интерфейс : Установленный внешний ASPI-интерфейс
Обработка зазоров : Добавлено к предыдущему треку
Выходной формат : Внутренние WAV-операции
Формат сэмплов : 44.100 Гц; 16 бит; стерео
TOC извлечённого CD
Трек | Старт | Длительность | Начальный сектор | Конечный сектор
---------------------------------------------------------------------
1 | 0:00.00 | 3:34.19 | 0 | 16068
2 | 3:34.19 | 3:48.49 | 16069 | 33217
3 | 7:22.68 | 3:16.02 | 33218 | 47919
4 | 10:38.70 | 3:35.27 | 47920 | 64071
5 | 14:14.22 | 4:56.10 | 64072 | 86281
6 | 19:10.32 | 4:24.72 | 86282 | 106153
7 | 23:35.29 | 3:22.51 | 106154 | 121354
8 | 26:58.05 | 5:05.30 | 121355 | 144259
9 | 32:03.35 | 3:39.70 | 144260 | 160754
10 | 35:43.30 | 4:17.26 | 160755 | 180055
11 | 40:00.56 | 3:58.35 | 180056 | 197940
12 | 43:59.16 | 5:19.57 | 197941 | 221922
13 | 49:18.73 | 4:12.11 | 221923 | 240833
Трек 1
Имя файла C:\Documents and Settings\ldv\Рабочий стол\Allem Alby\01-Allem Alby.wav
Длина предзазора 0:00:02.00
Пиковый уровень 100.0 %
Качество трека 100.0 %
CRC теста 2C52FC26
CRC копии 2C52FC26
Точное извлечение (достоверность 1) [3E081764]
Копирование... OK
Трек 2
Имя файла C:\Documents and Settings\ldv\Рабочий стол\Allem Alby\02-Ana Ayesh.wav
Длина предзазора 0:00:02.00
Пиковый уровень 100.0 %
Качество трека 100.0 %
CRC теста B9B20D7D
CRC копии B9B20D7D
Точное извлечение (достоверность 1) [792A38F1]
Копирование... OK
Трек 3
Имя файла C:\Documents and Settings\ldv\Рабочий стол\Allem Alby\03-Ally el Wadaa.wav
Длина предзазора 0:00:02.00
Пиковый уровень 100.0 %
Качество трека 100.0 %
CRC теста EFBAF5F2
CRC копии EFBAF5F2
Точное извлечение (достоверность 1) [1DCDF039]
Копирование... OK
Трек 4
Имя файла C:\Documents and Settings\ldv\Рабочий стол\Allem Alby\04-Ya Kinzy.wav
Длина предзазора 0:00:02.00
Пиковый уровень 100.0 %
Качество трека 100.0 %
CRC теста AC2D9191
CRC копии AC2D9191
Точное извлечение (достоверность 1) [B24C38E0]
Копирование... OK
Трек 5
Имя файла C:\Documents and Settings\ldv\Рабочий стол\Allem Alby\05-Te'dar Tetkallem.wav
Длина предзазора 0:00:02.00
Пиковый уровень 100.0 %
Качество трека 100.0 %
CRC теста 98C4AF7D
CRC копии 98C4AF7D
Точное извлечение (достоверность 1) [AC82FC55]
Копирование... OK
Трек 6
Имя файла C:\Documents and Settings\ldv\Рабочий стол\Allem Alby\06-Law Ash'any.wav
Длина предзазора 0:00:02.00
Пиковый уровень 100.0 %
Качество трека 100.0 %
CRC теста 1B162E6B
CRC копии 1B162E6B
Точное извлечение (достоверность 1) [86A62656]
Копирование... OK
Трек 7
Имя файла C:\Documents and Settings\ldv\Рабочий стол\Allem Alby\07-Allemny Hawak.wav
Длина предзазора 0:00:02.00
Пиковый уровень 100.0 %
Качество трека 100.0 %
CRC теста 57E14F30
CRC копии 57E14F30
Точное извлечение (достоверность 1) [1B8B7DAE]
Копирование... OK
Трек 8
Имя файла C:\Documents and Settings\ldv\Рабочий стол\Allem Alby\08-Habibi Ya Omry.wav
Длина предзазора 0:00:02.00
Пиковый уровень 100.0 %
Качество трека 100.0 %
CRC теста B464F583
CRC копии B464F583
Точное извлечение (достоверность 1) [33E2E0D3]
Копирование... OK
Трек 9
Имя файла C:\Documents and Settings\ldv\Рабочий стол\Allem Alby\09-Enta Ma Oltesh Leh.wav
Длина предзазора 0:00:02.00
Пиковый уровень 100.0 %
Качество трека 100.0 %
CRC теста 02443887
CRC копии 02443887
Точное извлечение (достоверность 1) [7CC30754]
Копирование... OK
Трек 10
Имя файла C:\Documents and Settings\ldv\Рабочий стол\Allem Alby\10-Hanneit.wav
Длина предзазора 0:00:02.00
Пиковый уровень 100.0 %
Качество трека 99.9 %
CRC теста BF4D1393
CRC копии BF4D1393
Точное извлечение (достоверность 1) [2EA39B61]
Копирование... OK
Трек 11
Имя файла C:\Documents and Settings\ldv\Рабочий стол\Allem Alby\11-Kollohom.wav
Длина предзазора 0:00:02.00
Пиковый уровень 100.0 %
Качество трека 100.0 %
CRC теста 69EB3254
CRC копии 69EB3254
Точное извлечение (достоверность 1) [8914D859]
Копирование... OK
Трек 12
Имя файла C:\Documents and Settings\ldv\Рабочий стол\Allem Alby\12-Khalleeny Gangbak.wav
Длина предзазора 0:00:02.00
Пиковый уровень 100.0 %
Качество трека 99.9 %
CRC теста A2E0B5BE
CRC копии A2E0B5BE
Точное извлечение (достоверность 1) [4F614D64]
Копирование... OK
Трек 13
Имя файла C:\Documents and Settings\ldv\Рабочий стол\Allem Alby\13-Bonustrack - Allem Alby (Remix).wav
Длина предзазора 0:00:02.00
Пиковый уровень 89.1 %
Качество трека 100.0 %
CRC теста 4ED51F2A
CRC копии 4ED51F2A
Точное извлечение (достоверность 1) [01C0B1F2]
Копирование... OK
Все треки извлечены точно
Ошибок не произошло
Конец отчёта

CUE log

REM GENRE Ethnic
REM DATE 2003
REM DISCID 960C8B0D
REM COMMENT "ExactAudioCopy v0.99pb5"
PERFORMER "Amr Diab"
TITLE "Allem Alby"
FILE "01-Allem Alby.wav" WAVE
TRACK 01 AUDIO
TITLE "Allem Alby"
PERFORMER "Amr Diab"
INDEX 01 00:00:00
TRACK 02 AUDIO
TITLE "Ana Ayesh"
PERFORMER "Amr Diab"
INDEX 00 03:32:19
FILE "02-Ana Ayesh.wav" WAVE
INDEX 01 00:00:00
TRACK 03 AUDIO
TITLE "Ally el Wadaa"
PERFORMER "Amr Diab"
INDEX 00 03:46:49
FILE "03-Ally el Wadaa.wav" WAVE
INDEX 01 00:00:00
TRACK 04 AUDIO
TITLE "Ya Kinzy"
PERFORMER "Amr Diab"
INDEX 00 03:14:02
FILE "04-Ya Kinzy.wav" WAVE
INDEX 01 00:00:00
TRACK 05 AUDIO
TITLE "Te'dar Tetkallem"
PERFORMER "Amr Diab"
INDEX 00 03:33:27
FILE "05-Te'dar Tetkallem.wav" WAVE
INDEX 01 00:00:00
TRACK 06 AUDIO
TITLE "Law Ash'any"
PERFORMER "Amr Diab"
INDEX 00 04:54:10
FILE "06-Law Ash'any.wav" WAVE
INDEX 01 00:00:00
TRACK 07 AUDIO
TITLE "Allemny Hawak"
PERFORMER "Amr Diab"
INDEX 00 04:22:72
FILE "07-Allemny Hawak.wav" WAVE
INDEX 01 00:00:00
TRACK 08 AUDIO
TITLE "Habibi Ya Omry"
PERFORMER "Amr Diab"
INDEX 00 03:20:51
FILE "08-Habibi Ya Omry.wav" WAVE
INDEX 01 00:00:00
TRACK 09 AUDIO
TITLE "Enta Ma Oltesh Leh"
PERFORMER "Amr Diab"
INDEX 00 05:03:30
FILE "09-Enta Ma Oltesh Leh.wav" WAVE
INDEX 01 00:00:00
TRACK 10 AUDIO
TITLE "Hanneit"
PERFORMER "Amr Diab"
INDEX 00 03:37:70
FILE "10-Hanneit.wav" WAVE
INDEX 01 00:00:00
TRACK 11 AUDIO
TITLE "Kollohom"
PERFORMER "Amr Diab"
INDEX 00 04:15:26
FILE "11-Kollohom.wav" WAVE
INDEX 01 00:00:00
TRACK 12 AUDIO
TITLE "Khalleeny Gangbak"
PERFORMER "Amr Diab"
INDEX 00 03:56:35
FILE "12-Khalleeny Gangbak.wav" WAVE
INDEX 01 00:00:00
TRACK 13 AUDIO
TITLE "Bonustrack - Allem Alby (Remix)"
PERFORMER "Amr Diab"
INDEX 00 05:17:57
FILE "13-Bonustrack - Allem Alby (Remix).wav" WAVE
INDEX 01 00:00:00

2004 - Lealy Nahary

2004 - Lealy Nahary
Трэклист:
01. Lealy Nahary (04:03)
02. Wahashtiny (03:55)
03. Tinsa Wahda (04:22)
04. Khad Alby Ma'ah (04:01)
05. Ye Douk El Bab (03:30)
06. Dayman Fi Baly (03:45)
07. Khaleena Neshofak (03:58)
08. Qusad Einy (04:22)
09. Illa Heya (03:40)
10. Rihet El Habayib (03:14)

EAC log

Exact Audio Copy V0.99 prebeta 5 from 4. May 2009
Отчёт EAC об извлечении, выполненном 3. января 2010, 8:59
Amr Diab / Lealy Nahary
Дисковод: HL-DT-STDVDRAM GH22LS50 Adapter: 0 ID: 0
Режим чтения : Достоверность
Использование точного потока : Да
Отключение кэша аудио : Да
Использование указателей C2 : Нет
Коррекция смещения при чтении : 667
Способность читать области Lead-in и Lead-out : Нет
Заполнение пропущенных сэмплов тишиной : Да
Удаление блоков с тишиной в начале и конце : Нет
При вычислениях CRC использовались нулевые сэмплы : Да
Интерфейс : Установленный внешний ASPI-интерфейс
Обработка зазоров : Добавлено к предыдущему треку
Выходной формат : Внутренние WAV-операции
Формат сэмплов : 44.100 Гц; 16 бит; стерео
TOC извлечённого CD
Трек | Старт | Длительность | Начальный сектор | Конечный сектор
---------------------------------------------------------------------
1 | 0:00.00 | 4:06.02 | 0 | 18451
2 | 4:06.02 | 3:57.21 | 18452 | 36247
3 | 8:03.23 | 4:24.65 | 36248 | 56112
4 | 12:28.13 | 4:03.58 | 56113 | 74395
5 | 16:31.71 | 3:32.69 | 74396 | 90364
6 | 20:04.65 | 3:47.45 | 90365 | 107434
7 | 23:52.35 | 3:58.62 | 107435 | 125346
8 | 27:51.22 | 4:24.17 | 125347 | 145163
9 | 32:15.39 | 3:42.74 | 145164 | 161887
10 | 35:58.38 | 3:14.21 | 161888 | 176458
Трек 1
Имя файла C:\Documents and Settings\ldv\Рабочий стол\Nahary\01-Lealy Nahary.wav
Длина предзазора 0:00:02.00
Пиковый уровень 56.3 %
Качество трека 99.9 %
CRC копии F1834FBB
Трек не обнаружен в базе AccurateRip
Копирование... OK
Трек 2
Имя файла C:\Documents and Settings\ldv\Рабочий стол\Nahary\02-Wahashtiny.wav
Пиковый уровень 69.3 %
Качество трека 100.0 %
CRC копии F8C5AFB2
Трек не обнаружен в базе AccurateRip
Копирование... OK
Трек 3
Имя файла C:\Documents and Settings\ldv\Рабочий стол\Nahary\03-Tinsa Wahda.wav
Пиковый уровень 63.1 %
Качество трека 100.0 %
CRC копии 46A226D3
Трек не обнаружен в базе AccurateRip
Копирование... OK
Трек 4
Имя файла C:\Documents and Settings\ldv\Рабочий стол\Nahary\04-Khad Alby Ma'ah.wav
Пиковый уровень 65.9 %
Качество трека 100.0 %
CRC копии 1931C06D
Трек не обнаружен в базе AccurateRip
Копирование... OK
Трек 5
Имя файла C:\Documents and Settings\ldv\Рабочий стол\Nahary\05-Ye Douk El Bab.wav
Пиковый уровень 73.5 %
Качество трека 100.0 %
CRC копии D991E467
Трек не обнаружен в базе AccurateRip
Копирование... OK
Трек 6
Имя файла C:\Documents and Settings\ldv\Рабочий стол\Nahary\06-Dayman Fi Baly.wav
Пиковый уровень 60.8 %
Качество трека 100.0 %
CRC копии F7AEEE66
Трек не обнаружен в базе AccurateRip
Копирование... OK
Трек 7
Имя файла C:\Documents and Settings\ldv\Рабочий стол\Nahary\07-Khaleena Neshofak.wav
Пиковый уровень 65.7 %
Качество трека 100.0 %
CRC копии A9910D8E
Трек не обнаружен в базе AccurateRip
Копирование... OK
Трек 8
Имя файла C:\Documents and Settings\ldv\Рабочий стол\Nahary\08-Qusad Einy.wav
Пиковый уровень 78.0 %
Качество трека 100.0 %
CRC копии 6460CAB2
Трек не обнаружен в базе AccurateRip
Копирование... OK
Трек 9
Имя файла C:\Documents and Settings\ldv\Рабочий стол\Nahary\09-Illa Heya.wav
Пиковый уровень 63.5 %
Качество трека 100.0 %
CRC копии F7F0DD10
Трек не обнаружен в базе AccurateRip
Копирование... OK
Трек 10
Имя файла C:\Documents and Settings\ldv\Рабочий стол\Nahary\10-Rihet El Habayib.wav
Пиковый уровень 82.5 %
Качество трека 99.9 %
CRC копии A254998E
Трек не обнаружен в базе AccurateRip
Копирование... OK
Ни одного трека нет в базе AccurateRip
Ошибок не произошло
Конец отчёта

CUE log

REM GENRE Arabic
REM DATE 2004
REM DISCID 8509300A
REM COMMENT "ExactAudioCopy v0.99pb5"
PERFORMER "Amr Diab"
TITLE "Lealy Nahary"
FILE "01-Lealy Nahary.wav" WAVE
TRACK 01 AUDIO
TITLE "Lealy Nahary"
PERFORMER "Amr Diab"
FLAGS DCP
INDEX 01 00:00:00
FILE "02-Wahashtiny.wav" WAVE
TRACK 02 AUDIO
TITLE "Wahashtiny"
PERFORMER "Amr Diab"
FLAGS DCP
INDEX 01 00:00:00
FILE "03-Tinsa Wahda.wav" WAVE
TRACK 03 AUDIO
TITLE "Tinsa Wahda"
PERFORMER "Amr Diab"
FLAGS DCP
INDEX 01 00:00:00
FILE "04-Khad Alby Ma'ah.wav" WAVE
TRACK 04 AUDIO
TITLE "Khad Alby Ma'ah"
PERFORMER "Amr Diab"
FLAGS DCP
INDEX 01 00:00:00
FILE "05-Ye Douk El Bab.wav" WAVE
TRACK 05 AUDIO
TITLE "Ye Douk El Bab"
PERFORMER "Amr Diab"
FLAGS DCP
INDEX 01 00:00:00
FILE "06-Dayman Fi Baly.wav" WAVE
TRACK 06 AUDIO
TITLE "Dayman Fi Baly"
PERFORMER "Amr Diab"
FLAGS DCP
INDEX 01 00:00:00
FILE "07-Khaleena Neshofak.wav" WAVE
TRACK 07 AUDIO
TITLE "Khaleena Neshofak"
PERFORMER "Amr Diab"
FLAGS DCP
INDEX 01 00:00:00
FILE "08-Qusad Einy.wav" WAVE
TRACK 08 AUDIO
TITLE "Qusad Einy"
PERFORMER "Amr Diab"
FLAGS DCP
INDEX 01 00:00:00
FILE "09-Illa Heya.wav" WAVE
TRACK 09 AUDIO
TITLE "Illa Heya"
PERFORMER "Amr Diab"
FLAGS DCP
INDEX 01 00:00:00
FILE "10-Rihet El Habayib.wav" WAVE
TRACK 10 AUDIO
TITLE "Rihet El Habayib"
PERFORMER "Amr Diab"
FLAGS DCP
INDEX 01 00:00:00

2005 - Kammel Kalamak

2005 - Kammel Kalamak
Трэклист:
01. Kammel Kalamak (4:00)
02. We Maloh (4:48)
03. We Hikaytek Aih (4:14)
04. Aiam We Ben3eshha (3:15)
05. Allah La Yehremny Minnak (3:52)
06. Oddam Eyounak (3:48)
07. Ma3ak Begad (4:11)
08. Aywa Ana 3aref (3:51)
09. Betkhaby Leh (4:06)
10. Agheeb (3:31)

EAC log

Exact Audio Copy V1.0 beta 3 from 29. August 2011
Отчёт EAC об извлечении, выполненном 23. сентября 2013, 12:31
Amr Diab / Kammel Kalamak
Дисковод: HL-DT-STDVDRAM GH22LS50 Adapter: 1 ID: 0
Режим чтения : Достоверность
Использование точного потока : Да
Отключение кэша аудио : Да
Использование указателей C2 : Нет
Коррекция смещения при чтении : 0
Способность читать области Lead-in и Lead-out : Нет
Заполнение пропущенных сэмплов тишиной : Да
Удаление блоков с тишиной в начале и конце : Нет
При вычислениях CRC использовались нулевые сэмплы : Да
Интерфейс : Встроенный Win32-интерфейс для Win NT/2000
Выходной формат : Внутренние WAV-операции
Формат сэмплов : 44.100 Гц; 16 бит; стерео
TOC извлечённого CD
Трек | Старт | Длительность | Начальный сектор | Конечный сектор
---------------------------------------------------------------------
1 | 0:02.00 | 4:02.14 | 150 | 18313
2 | 4:04.14 | 4:50.21 | 18314 | 40084
3 | 8:54.35 | 4:16.15 | 40085 | 59299
4 | 13:10.50 | 3:17.38 | 59300 | 74112
5 | 16:28.13 | 3:54.40 | 74113 | 91702
6 | 20:22.53 | 3:50.16 | 91703 | 108968
7 | 24:12.69 | 4:13.15 | 108969 | 127958
8 | 28:26.09 | 3:53.57 | 127959 | 145490
9 | 32:19.66 | 4:08.63 | 145491 | 164153
10 | 36:28.54 | 3:31.29 | 164154 | 180007
Трек 1, Индекс 1
Пиковый уровень 99.2 %
Скорость извлечения 1.1 X
Качество трека 100.0 %
Копирование... OK
Трек 2, Индекс 1
Пиковый уровень 96.9 %
Скорость извлечения 1.3 X
Качество трека 100.0 %
Копирование... OK
Трек 3, Индекс 1
Пиковый уровень 100.0 %
Скорость извлечения 1.4 X
Качество трека 100.0 %
Копирование... OK
Трек 4, Индекс 1
Пиковый уровень 100.0 %
Скорость извлечения 1.4 X
Качество трека 100.0 %
Копирование... OK
Трек 5, Индекс 1
Пиковый уровень 100.0 %
Скорость извлечения 1.6 X
Качество трека 100.0 %
Копирование... OK
Трек 6, Индекс 1
Пиковый уровень 98.0 %
Скорость извлечения 1.6 X
Качество трека 100.0 %
Копирование... OK
Трек 7, Индекс 1
Пиковый уровень 99.2 %
Скорость извлечения 1.7 X
Качество трека 100.0 %
Копирование... OK
Трек 8, Индекс 1
Пиковый уровень 97.3 %
Скорость извлечения 1.5 X
Качество трека 99.9 %
Копирование... OK
Трек 9, Индекс 1
Пиковый уровень 97.8 %
Скорость извлечения 1.9 X
Качество трека 100.0 %
Копирование... OK
Трек 10, Индекс 1
Пиковый уровень 97.5 %
Скорость извлечения 1.9 X
Качество трека 100.0 %
Копирование... OK
Ошибок не произошло
Конец отчёта
==== Контрольная сумма отчёта 57460E9CCA88B80636B222AB70E5724BD94AA3FD2A750783C9097FEF3A43F62F ====

CUE log

REM DATE 2005
REM DISCID 84095E0A
REM COMMENT "ExactAudioCopy v1.0b3"
PERFORMER "Amr Diab"
TITLE "Kammel Kalamak"
FILE "01 Kammel Kalamak.wav" WAVE
TRACK 01 AUDIO
TITLE "Kammel Kalamak"
PERFORMER "Amr Diab"
PREGAP 00:02:00
INDEX 01 00:00:00
TRACK 02 AUDIO
TITLE "We Maloh"
PERFORMER "Amr Diab"
INDEX 00 04:00:14
FILE "02 We Maloh.wav" WAVE
INDEX 01 00:00:00
TRACK 03 AUDIO
TITLE "We Hikaytek Aih"
PERFORMER "Amr Diab"
INDEX 00 04:48:21
FILE "03 We Hikaytek Aih.wav" WAVE
INDEX 01 00:00:00
TRACK 04 AUDIO
TITLE "Aiam We Ben3eshha"
PERFORMER "Amr Diab"
INDEX 00 04:14:15
FILE "04 Aiam We Ben3eshha.wav" WAVE
INDEX 01 00:00:00
TRACK 05 AUDIO
TITLE "Allah La Yehremny Minnak"
PERFORMER "Amr Diab"
INDEX 00 03:15:38
FILE "05 Allah La Yehremny Minnak.wav" WAVE
INDEX 01 00:00:00
TRACK 06 AUDIO
TITLE "Oddam Eyounak"
PERFORMER "Amr Diab"
INDEX 00 03:52:40
FILE "06 Oddam Eyounak.wav" WAVE
INDEX 01 00:00:00
TRACK 07 AUDIO
TITLE "Ma3ak Begad"
PERFORMER "Amr Diab"
INDEX 00 03:48:16
FILE "07 Ma3ak Begad.wav" WAVE
INDEX 01 00:00:00
TRACK 08 AUDIO
TITLE "Aywa Ana 3aref"
PERFORMER "Amr Diab"
INDEX 00 04:11:15
FILE "08 Aywa Ana 3aref.wav" WAVE
INDEX 01 00:00:00
TRACK 09 AUDIO
TITLE "Betkhaby Leh"
PERFORMER "Amr Diab"
INDEX 00 03:51:57
FILE "09 Betkhaby Leh.wav" WAVE
INDEX 01 00:00:00
TRACK 10 AUDIO
TITLE "Agheeb"
PERFORMER "Amr Diab"
INDEX 00 04:06:63
FILE "10 Agheeb.wav" WAVE
INDEX 01 00:00:00

2007 - El Lilady

2007 - El Lilady
Трэклист:
01. Ne'Oul Aih 04:01
02. El Lilady 02:55
03. Toul Ma'an Shaifak 03:28
04. Hikayat 04:04
05. Inta El Ghaly 03:47
06. Rohy Mertahalak 03:41
07. Aletly Oul 03:28
08. We Fehmt Einak 03:41
09. Dehket 03:29
10. Khalik Ma'aya 03:54

EAC log

Exact Audio Copy V0.99 prebeta 5 from 4. May 2009
Отчёт EAC об извлечении, выполненном 3. января 2010, 16:00
Amr Diab / El Lilady
Дисковод: HL-DT-STDVDRAM GH22LS50 Adapter: 0 ID: 0
Режим чтения : Достоверность
Использование точного потока : Да
Отключение кэша аудио : Да
Использование указателей C2 : Нет
Коррекция смещения при чтении : 667
Способность читать области Lead-in и Lead-out : Нет
Заполнение пропущенных сэмплов тишиной : Да
Удаление блоков с тишиной в начале и конце : Нет
При вычислениях CRC использовались нулевые сэмплы : Да
Интерфейс : Установленный внешний ASPI-интерфейс
Обработка зазоров : Добавлено к предыдущему треку
Выходной формат : Внутренние WAV-операции
Формат сэмплов : 44.100 Гц; 16 бит; стерео
TOC извлечённого CD
Трек | Старт | Длительность | Начальный сектор | Конечный сектор
---------------------------------------------------------------------
1 | 0:00.00 | 4:01.08 | 0 | 18082
2 | 4:01.08 | 2:55.51 | 18083 | 31258
3 | 6:56.59 | 3:28.51 | 31259 | 46909
4 | 10:25.35 | 4:04.22 | 46910 | 65231
5 | 14:29.57 | 3:47.12 | 65232 | 82268
6 | 18:16.69 | 3:41.61 | 82269 | 98904
7 | 21:58.55 | 3:28.63 | 98905 | 114567
8 | 25:27.43 | 3:41.31 | 114568 | 131173
9 | 29:08.74 | 3:29.25 | 131174 | 146873
10 | 32:38.24 | 3:54.38 | 146874 | 164461
Трек 1
Имя файла C:\Documents and Settings\ldv\Рабочий стол\El leila\01-Ne, Oul Aih.wav
Длина предзазора 0:00:02.00
Пиковый уровень 98.8 %
Качество трека 100.0 %
CRC копии 46E963E8
Точное извлечение (достоверность 1) [0E277E9B]
Копирование... OK
Трек 2
Имя файла C:\Documents and Settings\ldv\Рабочий стол\El leila\02-El Lilady.wav
Пиковый уровень 99.6 %
Качество трека 100.0 %
CRC копии F9CE0123
Точное извлечение (достоверность 1) [10FE1589]
Копирование... OK
Трек 3
Имя файла C:\Documents and Settings\ldv\Рабочий стол\El leila\03-Toul Ma,An Shaifak.wav
Пиковый уровень 98.8 %
Качество трека 100.0 %
CRC копии E34AB282
Точное извлечение (достоверность 1) [ABC4D80B]
Копирование... OK
Трек 4
Имя файла C:\Documents and Settings\ldv\Рабочий стол\El leila\04-Hikayat.wav
Длина предзазора 0:00:01.51
Пиковый уровень 98.8 %
Качество трека 100.0 %
CRC копии 8FABF99B
Точное извлечение (достоверность 1) [B6178395]
Копирование... OK
Трек 5
Имя файла C:\Documents and Settings\ldv\Рабочий стол\El leila\05-Inta El Ghaly.wav
Длина предзазора 0:00:00.17
Пиковый уровень 98.8 %
Качество трека 100.0 %
CRC копии 0EA5B337
Точное извлечение (достоверность 1) [DFF5D437]
Копирование... OK
Трек 6
Имя файла C:\Documents and Settings\ldv\Рабочий стол\El leila\06-Rohy Mertahalak.wav
Длина предзазора 0:00:00.19
Пиковый уровень 98.8 %
Качество трека 99.9 %
CRC копии 7DFFCEA2
Точное извлечение (достоверность 1) [A9DC8408]
Копирование... OK
Трек 7
Имя файла C:\Documents and Settings\ldv\Рабочий стол\El leila\07-Aletly Oul.wav
Длина предзазора 0:00:00.45
Пиковый уровень 98.8 %
Качество трека 100.0 %
CRC копии 5CEDC68C
Точное извлечение (достоверность 1) [8315AFA3]
Копирование... OK
Трек 8
Имя файла C:\Documents and Settings\ldv\Рабочий стол\El leila\08-We Fehmt Einak.wav
Пиковый уровень 98.8 %
Качество трека 100.0 %
CRC копии 4DDDD1C5
Точное извлечение (достоверность 1) [E3A55245]
Копирование... OK
Трек 9
Имя файла C:\Documents and Settings\ldv\Рабочий стол\El leila\09-Dehket.wav
Длина предзазора 0:00:00.14
Пиковый уровень 100.0 %
Качество трека 100.0 %
CRC копии B5235105
Точное извлечение (достоверность 1) [218BF28F]
Копирование... OK
Трек 10
Имя файла C:\Documents and Settings\ldv\Рабочий стол\El leila\10-Khalik Ma,Aya.wav
Длина предзазора 0:00:00.43
Пиковый уровень 98.8 %
Качество трека 100.0 %
CRC копии 2EA5A617
Точное извлечение (достоверность 1) [020A79ED]
Копирование... OK
Все треки извлечены точно
Ошибок не произошло
Конец отчёта

CUE log

REM GENRE Country
REM DATE 2007
REM DISCID 7D08900A
REM COMMENT "ExactAudioCopy v0.99pb5"
PERFORMER "Amr Diab"
TITLE "El Lilady"
FILE "01-Ne, Oul Aih.wav" WAVE
TRACK 01 AUDIO
TITLE "Ne, Oul Aih"
PERFORMER "Amr Diab"
INDEX 01 00:00:00
FILE "02-El Lilady.wav" WAVE
TRACK 02 AUDIO
TITLE "El Lilady"
PERFORMER "Amr Diab"
INDEX 01 00:00:00
FILE "03-Toul Ma,An Shaifak.wav" WAVE
TRACK 03 AUDIO
TITLE "Toul Ma,An Shaifak"
PERFORMER "Amr Diab"
INDEX 01 00:00:00
TRACK 04 AUDIO
TITLE "Hikayat"
PERFORMER "Amr Diab"
INDEX 00 03:27:00
FILE "04-Hikayat.wav" WAVE
INDEX 01 00:00:00
TRACK 05 AUDIO
TITLE "Inta El Ghaly"
PERFORMER "Amr Diab"
INDEX 00 04:04:05
FILE "05-Inta El Ghaly.wav" WAVE
INDEX 01 00:00:00
TRACK 06 AUDIO
TITLE "Rohy Mertahalak"
PERFORMER "Amr Diab"
INDEX 00 03:46:68
FILE "06-Rohy Mertahalak.wav" WAVE
INDEX 01 00:00:00
TRACK 07 AUDIO
TITLE "Aletly Oul"
PERFORMER "Amr Diab"
INDEX 00 03:41:16
FILE "07-Aletly Oul.wav" WAVE
INDEX 01 00:00:00
FILE "08-We Fehmt Einak.wav" WAVE
TRACK 08 AUDIO
TITLE "We Fehmt Einak"
PERFORMER "Amr Diab"
INDEX 01 00:00:00
TRACK 09 AUDIO
TITLE "Dehket"
PERFORMER "Amr Diab"
INDEX 00 03:41:17
FILE "09-Dehket.wav" WAVE
INDEX 01 00:00:00
TRACK 10 AUDIO
TITLE "Khalik Ma,Aya"
PERFORMER "Amr Diab"
INDEX 00 03:28:57
FILE "10-Khalik Ma,Aya.wav" WAVE
INDEX 01 00:00:00

2009 - Wayah

2009 - Wayah
Треклист:
01. Amr Diab - Wayah (4:51)
02. Amr Diab - Baadem Albi (2:57)
03. Amr Diab - Ella Habibi (3:22)
04. Amr Diab - Allah Aala Hobbak (3:41)
05. Amr Diab - Yehemak Fi Eh (4:07)
06. Amr Diab - Helwa Alayam (3:49)
07. Amr Diab - Tameni (2:50)
08. Amr Diab - Malak (4:07)
09. Amr Diab - Wehyati Khaleki (3:49)
10. Amr Diab - Aaini Wana Shayfah (3:21)
11. Amr Diab - Ah Men Alforaa (4:27)
12. Amr Diab - Beaedt Laih (4:11)

EAC log

Exact Audio Copy V1.0 beta 3 from 29. August 2011
Отчёт EAC об извлечении, выполненном 20. сентября 2013, 14:24
Amr Diab / Wayah
Дисковод: HL-DT-STDVDRAM GH22LS50 Adapter: 1 ID: 0
Режим чтения : Достоверность
Использование точного потока : Да
Отключение кэша аудио : Да
Использование указателей C2 : Нет
Коррекция смещения при чтении : 0
Способность читать области Lead-in и Lead-out : Нет
Заполнение пропущенных сэмплов тишиной : Да
Удаление блоков с тишиной в начале и конце : Нет
При вычислениях CRC использовались нулевые сэмплы : Да
Интерфейс : Встроенный Win32-интерфейс для Win NT/2000
Выходной формат : Внутренние WAV-операции
Формат сэмплов : 44.100 Гц; 16 бит; стерео
TOC извлечённого CD
Трек | Старт | Длительность | Начальный сектор | Конечный сектор
---------------------------------------------------------------------
1 | 0:02.00 | 4:53.49 | 150 | 22173
2 | 4:55.49 | 2:59.00 | 22174 | 35598
3 | 7:54.49 | 3:24.69 | 35599 | 50967
4 | 11:19.43 | 3:43.22 | 50968 | 67714
5 | 15:02.65 | 4:09.00 | 67715 | 86389
6 | 19:11.65 | 3:51.00 | 86390 | 103714
7 | 23:02.65 | 2:52.00 | 103715 | 116614
8 | 25:54.65 | 4:09.00 | 116615 | 135289
9 | 30:03.65 | 3:51.37 | 135290 | 152651
10 | 33:55.27 | 3:23.70 | 152652 | 167946
11 | 37:19.22 | 4:29.02 | 167947 | 188123
12 | 41:48.24 | 4:11.50 | 188124 | 206998
Трек 1, Индекс 1
Пиковый уровень 97.9 %
Скорость извлечения 1.2 X
Качество трека 100.0 %
Копирование... OK
Трек 2, Индекс 1
Пиковый уровень 100.0 %
Скорость извлечения 1.2 X
Качество трека 100.0 %
Копирование... OK
Трек 3, Индекс 1
Пиковый уровень 100.0 %
Скорость извлечения 1.2 X
Качество трека 100.0 %
Копирование... OK
Трек 4, Индекс 1
Пиковый уровень 100.0 %
Скорость извлечения 1.2 X
Качество трека 100.0 %
Копирование... OK
Трек 5, Индекс 1
Пиковый уровень 100.0 %
Скорость извлечения 1.2 X
Качество трека 100.0 %
Копирование... OK
Трек 6, Индекс 1
Пиковый уровень 100.0 %
Скорость извлечения 1.2 X
Качество трека 100.0 %
Копирование... OK
Трек 7, Индекс 1
Пиковый уровень 100.0 %
Скорость извлечения 1.2 X
Качество трека 100.0 %
Копирование... OK
Трек 8, Индекс 1
Пиковый уровень 100.0 %
Скорость извлечения 1.2 X
Качество трека 100.0 %
Копирование... OK
Трек 9, Индекс 1
Пиковый уровень 100.0 %
Скорость извлечения 1.2 X
Качество трека 100.0 %
Копирование... OK
Трек 10, Индекс 1
Пиковый уровень 100.0 %
Скорость извлечения 1.2 X
Качество трека 100.0 %
Копирование... OK
Трек 11, Индекс 1
Пиковый уровень 100.0 %
Скорость извлечения 1.2 X
Качество трека 100.0 %
Копирование... OK
Трек 12, Индекс 1
Пиковый уровень 100.0 %
Скорость извлечения 1.2 X
Качество трека 100.0 %
Копирование... OK
Ошибок не произошло
Конец отчёта
==== Контрольная сумма отчёта 02E97F40CC713D1362A508515E6CC163A4ED96B3DBDF2997C1198124A082B480 ====

CUE log

REM DATE 2009
REM DISCID 990AC50C
REM COMMENT "ExactAudioCopy v1.0b3"
PERFORMER "Amr Diab"
TITLE "Wayah"
FILE "01 Wayah.wav" WAVE
TRACK 01 AUDIO
TITLE "Wayah"
PERFORMER "Amr Diab"
PREGAP 00:02:00
INDEX 01 00:00:00
TRACK 02 AUDIO
TITLE "Baadem Albi"
PERFORMER "Amr Diab"
INDEX 00 04:51:49
FILE "02 Baadem Albi.wav" WAVE
INDEX 01 00:00:00
TRACK 03 AUDIO
TITLE "Ella Habibi"
PERFORMER "Amr Diab"
INDEX 00 02:57:00
FILE "03 Ella Habibi.wav" WAVE
INDEX 01 00:00:00
TRACK 04 AUDIO
TITLE "Allah Ala Hobbak"
PERFORMER "Amr Diab"
INDEX 00 03:22:69
FILE "04 Allah Ala Hobbak.wav" WAVE
INDEX 01 00:00:00
TRACK 05 AUDIO
TITLE "Yehemak Fe Eh"
PERFORMER "Amr Diab"
INDEX 00 03:41:22
FILE "05 Yehemak Fe Eh.wav" WAVE
INDEX 01 00:00:00
TRACK 06 AUDIO
TITLE "Helwa Alayam"
PERFORMER "Amr Diab"
INDEX 00 04:07:00
FILE "06 Helwa Alayam.wav" WAVE
INDEX 01 00:00:00
TRACK 07 AUDIO
TITLE "Tameni"
PERFORMER "Amr Diab"
INDEX 00 03:49:00
FILE "07 Tameni.wav" WAVE
INDEX 01 00:00:00
TRACK 08 AUDIO
TITLE "Malak"
PERFORMER "Amr Diab"
INDEX 00 02:50:00
FILE "08 Malak.wav" WAVE
INDEX 01 00:00:00
TRACK 09 AUDIO
TITLE "Wehyati Khaleki"
PERFORMER "Amr Diab"
INDEX 00 04:07:00
FILE "09 Wehyati Khaleki.wav" WAVE
INDEX 01 00:00:00
TRACK 10 AUDIO
TITLE "Aaini Wana Shayfah"
PERFORMER "Amr Diab"
INDEX 00 03:49:37
FILE "10 Aaini Wana Shayfah.wav" WAVE
INDEX 01 00:00:00
TRACK 11 AUDIO
TITLE "Ah Men Alforaa"
PERFORMER "Amr Diab"
INDEX 00 03:21:70
FILE "11 Ah Men Alforaa.wav" WAVE
INDEX 01 00:00:00
TRACK 12 AUDIO
TITLE "Beaedt Laih"
PERFORMER "Amr Diab"
INDEX 00 04:27:02
FILE "12 Beaedt Laih" WAVE
INDEX 01 00:00:00

2010 - Aslaha Btefre`

2010 - Aslaha Btefre`
Трэклист:
01. Aslaha Btefre' (5:22)
02. Aslaha Btefre' [Club Mix] (7:26)
03. Aslaha Btefre' [Karaoke] (5:21)
04. Aslaha Btefre' [Sax] (6:09)

EAC log

Exact Audio Copy V1.0 beta 3 from 29. August 2011
Отчёт EAC об извлечении, выполненном 20. сентября 2013, 8:34
Amr Diab / Aslaha Btefre'
Дисковод: HL-DT-STDVDRAM GH22LS50 Adapter: 1 ID: 0
Режим чтения : Достоверность
Использование точного потока : Да
Отключение кэша аудио : Да
Использование указателей C2 : Нет
Коррекция смещения при чтении : 0
Способность читать области Lead-in и Lead-out : Нет
Заполнение пропущенных сэмплов тишиной : Да
Удаление блоков с тишиной в начале и конце : Нет
При вычислениях CRC использовались нулевые сэмплы : Да
Интерфейс : Встроенный Win32-интерфейс для Win NT/2000
Выходной формат : Внутренние WAV-операции
Формат сэмплов : 44.100 Гц; 16 бит; стерео
TOC извлечённого CD
Трек | Старт | Длительность | Начальный сектор | Конечный сектор
---------------------------------------------------------------------
1 | 0:02.00 | 5:24.58 | 150 | 24507
2 | 5:26.58 | 7:28.47 | 24508 | 58154
3 | 12:55.30 | 5:23.37 | 58155 | 82416
4 | 18:18.67 | 6:09.34 | 82417 | 110125
Трек 1, Индекс 1
Пиковый уровень 95.1 %
Скорость извлечения 1.2 X
Качество трека 100.0 %
Копирование... OK
Трек 2, Индекс 1
Пиковый уровень 100.0 %
Скорость извлечения 1.2 X
Качество трека 100.0 %
Копирование... OK
Трек 3, Индекс 1
Пиковый уровень 100.0 %
Скорость извлечения 1.2 X
Качество трека 100.0 %
Копирование... OK
Трек 4, Индекс 1
Пиковый уровень 100.0 %
Скорость извлечения 1.2 X
Качество трека 100.0 %
Копирование... OK
Ошибок не произошло
Конец отчёта
==== Контрольная сумма отчёта 813C83BC5FD6662630225B1FEB54251ED3AD35C36E101C67474FE7986D5575E8 ====

CUE log

REM DISCID 2805BA04
REM COMMENT "ExactAudioCopy v1.0b3"
PERFORMER "Amr Diab"
TITLE "Aslaha Btefre'"
FILE "01 Aslaha Btefre'.wav" WAVE
TRACK 01 AUDIO
TITLE " Aslaha Btefre'"
PERFORMER "Amr Diab"
PREGAP 00:02:00
INDEX 01 00:00:00
TRACK 02 AUDIO
TITLE "Aslaha Btefre' [Club Mix]"
PERFORMER "Amr Diab"
INDEX 00 05:22:58
FILE "02 Aslaha Btefre' [Club Mix].wav" WAVE
INDEX 01 00:00:00
TRACK 03 AUDIO
TITLE "Aslaha Btefre' [Karaoke]"
PERFORMER "Amr Diab"
INDEX 00 07:26:47
FILE "03 Aslaha Btefre' [Karaoke].wav" WAVE
INDEX 01 00:00:00
TRACK 04 AUDIO
TITLE "Aslaha Btefre' [Sax]"
PERFORMER "Amr Diab"
INDEX 00 05:21:37
FILE "04 Aslaha Btefre' [Sax].wav" WAVE
INDEX 01 00:00:00
Добавлен альбом 2016 года Ahla W Ahla! Скачивайте торрент заново!

Раздача от:
Как качать и Как раздавать  ·  Часто задаваемые Вопросы и Ответы (FAQ)