Загружается…
Ошибка

Скачать бесплатно торрент Ведьмак / The Witcher / Сезон: 1 / Серии: 1-8 из 8 (Алик Сахаров / Alik Sakharov, Шарлотта Брандстром / Charlotte Br?ndstr?m, Алекс Гарсиа Лопес / Alex Garcia Lopez) [2019, Польша, США, фэнтези, боевик, драма, приключения, WEB-DL 1080p] Dub (Пифагор) torrent download

Страницы:  1

Ответить на тему
Автор Сообщение

KiberPirat

Ведьмак / The Witcher- -Год выпуска: 2019
Страна: Польша, США
Жанр: фэнтези, боевик, драма, приключения
Продолжительность: 60 мин.-Перевод: Профессиональный (дублированный) Пифагор-Режиссёр: Алик Сахаров / Alik Sakharov
В ролях: Генри Кавилл, Фрейя Аллан, Джои Бэти, МайАнна Бёринг, Том Кэнтон, Аня Чалотра, Имон Фэррен, Бьерн Хлинур Харальдссон, Адам Леви, Джоди Мэй-Описание: Ведьмак Геральт, мутант и убийца чудовищ, изо всех сил старается найти свое место в мире, где люди часто оказываются намного хуже монстров.- -
Сэмпл
-Качество: WEB-DL 1080p
Контейнер: MKV
Видео: AVC, 1920x1080 (16:9), 24,000 fps, 5800 Kbps
Аудио 1: E-AC3+Atmos, 48,0 kHz, 6 ch, 768 kbps | Netflix
Аудио 2: AC3, 48,0 kHz, 6 ch, 640 kbps | Netflix
Аудио 3: E-AC3+Atmos, 48,0 kHz, 6 ch, 768 kbps | English
Субтитры: Русские (Forced, Full), английские (Forced, Full), арабские, чешские (Forced, Full), датские, немецкие (Forced, Full), греческие, испанские (Forced, Full), европейские испанские (Forced, Full), финские, французские (Forced, Full), иврит, хинди (Forced), венгерские (Forced, Full), индонезийские, итальянские (Forced, Full), японские (Forced, Full), корейские, норвежские, голландские, польские (Forced, Full), португальские (Forced, Full), бразильские португальские (Forced, Full), румынские, шведские, тайские (Forced, Full), турецкие (Forced, Full), вьетнамские, китайские (упрощенные и традиционные)
Реклама: Отсутствует

Релиз

Автор релиза - Kyle. Релиз подготовлен эксклюзивно для rutracker.
Все субтитры выкачаны с профилем webvtt-lssdh-ios.

Список серий

01 The End's Beginning
02 Four Marks
03 Betrayer Moon
04 Of Banquets, Bastards and Burials
05 Bottled Appetites
06 Rare Species
07 Before a Fall
08 Much More

MediaInfo

General
Complete name : The.Witcher.S01E01.WEB-DL.1080p.-Kyle.mkv
Format : Matroska
Format version : Version 4
File size : 3.36 GiB
Duration : 1 h 1 min
Overall bit rate mode : Variable
Overall bit rate : 7 877 kb/s
Encoded date : UTC 2019-12-20 08:43:47
Writing application : mkvmerge v41.0.0 ('Smarra') 64-bit
Writing library : libebml v1.3.9 + libmatroska v1.5.2
Video
ID : 1
Format : AVC
Format/Info : Advanced Video Codec
Format profile : Main@L4
Format settings : CABAC / 3 Ref Frames
Format settings, CABAC : Yes
Format settings, Reference : 3 frames
Codec ID : V_MPEG4/ISO/AVC
Duration : 1 h 1 min
Bit rate mode : Variable
Bit rate : 5 800 kb/s
Maximum bit rate : 8 700 kb/s
Width : 1 920 pixels
Height : 1 080 pixels
Display aspect ratio : 16:9
Frame rate mode : Constant
Frame rate : 24.000 FPS
Color space : YUV
Chroma subsampling : 4:2:0
Bit depth : 8 bits
Scan type : Progressive
Bits/(Pixel*Frame) : 0.117
Stream size : 2.43 GiB (72%)
Title : English
Writing library : x264 core 148 r2715 7e75228
Encoding settings : cabac=1 / ref=3 / deblock=1:0:0 / analyse=0x1:0x111 / me=umh / subme=10 / psy=1 / psy_rd=1.00:0.00 / mixed_ref=1 / me_range=24 / chroma_me=1 / trellis=2 / 8x8dct=0 / cqm=0 / deadzone=21,11 / fast_pskip=1 / chroma_qp_offset=-2 / threads=8 / lookahead_threads=1 / sliced_threads=0 / nr=0 / decimate=1 / interlaced=0 / bluray_compat=0 / stitchable=1 / constrained_intra=0 / bframes=2 / b_pyramid=0 / b_adapt=2 / b_bias=0 / direct=3 / weightb=1 / open_gop=0 / weightp=2 / keyint=250 / keyint_min=24 / scenecut=0 / intra_refresh=0 / rc_lookahead=48 / rc=2pass / mbtree=1 / bitrate=5800 / ratetol=1.0 / qcomp=0.50 / qpmin=6 / qpmax=51 / qpstep=4 / cplxblur=20.0 / qblur=0.5 / vbv_maxrate=8700 / vbv_bufsize=11600 / nal_hrd=vbr / filler=0 / ip_ratio=1.40 / aq=1:1.00
Language : English
Default : Yes
Forced : No
Audio #1
ID : 2
Format : E-AC-3 JOC
Format/Info : Enhanced AC-3 with Joint Object Coding
Commercial name : Dolby Digital Plus with Dolby Atmos
Codec ID : A_EAC3
Duration : 1 h 1 min
Bit rate mode : Constant
Bit rate : 768 kb/s
Channel(s) : 6 channels
Channel layout : L R C LFE Ls Rs
Sampling rate : 48.0 kHz
Frame rate : 31.250 FPS (1536 SPF)
Compression mode : Lossy
Stream size : 335 MiB (10%)
Title : Russian, E-AC3
Language : Russian
Service kind : Complete Main
Default : Yes
Forced : No
Complexity index : 16
Number of dynamic objects : 15
Bed channel count : 1 channel
Bed channel configuration : LFE
Audio #2
ID : 3
Format : AC-3
Format/Info : Audio Coding 3
Commercial name : Dolby Digital
Codec ID : A_AC3
Duration : 1 h 1 min
Bit rate mode : Constant
Bit rate : 640 kb/s
Channel(s) : 6 channels
Channel layout : L R C LFE Ls Rs
Sampling rate : 48.0 kHz
Frame rate : 31.250 FPS (1536 SPF)
Compression mode : Lossy
Stream size : 280 MiB (8%)
Title : Russian, AC3
Language : Russian
Service kind : Complete Main
Default : No
Forced : No
Audio #3
ID : 4
Format : E-AC-3 JOC
Format/Info : Enhanced AC-3 with Joint Object Coding
Commercial name : Dolby Digital Plus with Dolby Atmos
Codec ID : A_EAC3
Duration : 1 h 1 min
Bit rate mode : Constant
Bit rate : 768 kb/s
Channel(s) : 6 channels
Channel layout : L R C LFE Ls Rs
Sampling rate : 48.0 kHz
Frame rate : 31.250 FPS (1536 SPF)
Compression mode : Lossy
Stream size : 335 MiB (10%)
Title : English
Language : English
Service kind : Complete Main
Default : No
Forced : No
Complexity index : 16
Number of dynamic objects : 15
Bed channel count : 1 channel
Bed channel configuration : LFE
Text #1
ID : 5
Format : UTF-8
Codec ID : S_TEXT/UTF8
Codec ID/Info : UTF-8 Plain Text
Duration : 59 min 54 s
Bit rate : 0 b/s
Count of elements : 3
Stream size : 144 Bytes (0%)
Title : Forced
Language : Russian
Default : Yes
Forced : No
Text #2
ID : 6
Format : UTF-8
Codec ID : S_TEXT/UTF8
Codec ID/Info : UTF-8 Plain Text
Duration : 59 min 54 s
Bit rate : 64 b/s
Count of elements : 624
Stream size : 28.1 KiB (0%)
Title : Russian
Language : Russian
Default : No
Forced : No
Text #3
ID : 7
Format : UTF-8
Codec ID : S_TEXT/UTF8
Codec ID/Info : UTF-8 Plain Text
Duration : 58 min 33 s
Bit rate : 46 b/s
Count of elements : 748
Stream size : 20.0 KiB (0%)
Title : English
Language : English
Default : No
Forced : No
Text #4
ID : 8
Format : UTF-8
Codec ID : S_TEXT/UTF8
Codec ID/Info : UTF-8 Plain Text
Duration : 59 min 54 s
Bit rate : 68 b/s
Count of elements : 630
Stream size : 30.0 KiB (0%)
Title : Arabic
Language : Arabic
Default : No
Forced : No
Text #5
ID : 9
Format : UTF-8
Codec ID : S_TEXT/UTF8
Codec ID/Info : UTF-8 Plain Text
Duration : 59 min 54 s
Bit rate : 0 b/s
Count of elements : 3
Stream size : 146 Bytes (0%)
Title : Czech, Forced
Language : Czech
Default : No
Forced : No
Text #6
ID : 10
Format : UTF-8
Codec ID : S_TEXT/UTF8
Codec ID/Info : UTF-8 Plain Text
Duration : 59 min 54 s
Bit rate : 69 b/s
Count of elements : 624
Stream size : 30.7 KiB (0%)
Title : Czech, Full
Language : Czech
Default : No
Forced : No
Text #7
ID : 11
Format : UTF-8
Codec ID : S_TEXT/UTF8
Codec ID/Info : UTF-8 Plain Text
Duration : 59 min 54 s
Bit rate : 38 b/s
Count of elements : 558
Stream size : 16.8 KiB (0%)
Title : Danish
Language : Danish
Default : No
Forced : No
Text #8
ID : 12
Format : UTF-8
Codec ID : S_TEXT/UTF8
Codec ID/Info : UTF-8 Plain Text
Duration : 59 min 54 s
Bit rate : 0 b/s
Count of elements : 3
Stream size : 67.0 Bytes (0%)
Title : German, Forced
Language : German
Default : No
Forced : No
Text #9
ID : 13
Format : UTF-8
Codec ID : S_TEXT/UTF8
Codec ID/Info : UTF-8 Plain Text
Duration : 59 min 54 s
Bit rate : 42 b/s
Count of elements : 538
Stream size : 18.7 KiB (0%)
Title : German, Full
Language : German
Default : No
Forced : No
Text #10
ID : 14
Format : UTF-8
Codec ID : S_TEXT/UTF8
Codec ID/Info : UTF-8 Plain Text
Duration : 59 min 57 s
Bit rate : 74 b/s
Count of elements : 621
Stream size : 32.7 KiB (0%)
Title : Greek
Language : Greek
Default : No
Forced : No
Text #11
ID : 15
Format : UTF-8
Codec ID : S_TEXT/UTF8
Codec ID/Info : UTF-8 Plain Text
Duration : 59 min 54 s
Bit rate : 0 b/s
Count of elements : 3
Stream size : 67.0 Bytes (0%)
Title : Spanish, Forced
Language : Spanish
Default : No
Forced : No
Text #12
ID : 16
Format : UTF-8
Codec ID : S_TEXT/UTF8
Codec ID/Info : UTF-8 Plain Text
Duration : 59 min 54 s
Bit rate : 39 b/s
Count of elements : 594
Stream size : 17.3 KiB (0%)
Title : Spanish, Full
Language : Spanish
Default : No
Forced : No
Text #13
ID : 17
Format : UTF-8
Codec ID : S_TEXT/UTF8
Codec ID/Info : UTF-8 Plain Text
Duration : 59 min 54 s
Bit rate : 0 b/s
Count of elements : 3
Stream size : 66.0 Bytes (0%)
Title : European Spanish, Forced
Language : Spanish
Default : No
Forced : No
Text #14
ID : 18
Format : UTF-8
Codec ID : S_TEXT/UTF8
Codec ID/Info : UTF-8 Plain Text
Duration : 59 min 54 s
Bit rate : 36 b/s
Count of elements : 608
Stream size : 16.2 KiB (0%)
Title : European Spanish, Full
Language : Spanish
Default : No
Forced : No
Text #15
ID : 19
Format : UTF-8
Codec ID : S_TEXT/UTF8
Codec ID/Info : UTF-8 Plain Text
Duration : 59 min 55 s
Bit rate : 38 b/s
Count of elements : 513
Stream size : 17.1 KiB (0%)
Title : Finnish
Language : Finnish
Default : No
Forced : No
Text #16
ID : 20
Format : UTF-8
Codec ID : S_TEXT/UTF8
Codec ID/Info : UTF-8 Plain Text
Duration : 59 min 54 s
Bit rate : 0 b/s
Count of elements : 3
Stream size : 76.0 Bytes (0%)
Title : French, Forced
Language : French
Default : No
Forced : No
Text #17
ID : 21
Format : UTF-8
Codec ID : S_TEXT/UTF8
Codec ID/Info : UTF-8 Plain Text
Duration : 59 min 54 s
Bit rate : 37 b/s
Count of elements : 616
Stream size : 16.7 KiB (0%)
Title : French, Full
Language : French
Default : No
Forced : No
Text #18
ID : 22
Format : UTF-8
Codec ID : S_TEXT/UTF8
Codec ID/Info : UTF-8 Plain Text
Duration : 59 min 54 s
Bit rate : 63 b/s
Count of elements : 625
Stream size : 27.7 KiB (0%)
Title : Hebrew
Language : Hebrew
Default : No
Forced : No
Text #19
ID : 23
Format : UTF-8
Codec ID : S_TEXT/UTF8
Codec ID/Info : UTF-8 Plain Text
Duration : 1 h 0 min
Bit rate : 0 b/s
Count of elements : 3
Stream size : 161 Bytes (0%)
Title : Hindi
Language : Hindi
Default : No
Forced : No
Text #20
ID : 24
Format : UTF-8
Codec ID : S_TEXT/UTF8
Codec ID/Info : UTF-8 Plain Text
Duration : 59 min 55 s
Bit rate : 0 b/s
Count of elements : 3
Stream size : 165 Bytes (0%)
Title : Hungarian, Forced
Language : Hungarian
Default : No
Forced : No
Text #21
ID : 25
Format : UTF-8
Codec ID : S_TEXT/UTF8
Codec ID/Info : UTF-8 Plain Text
Duration : 59 min 55 s
Bit rate : 76 b/s
Count of elements : 618
Stream size : 33.6 KiB (0%)
Title : Hungarian, Full
Language : Hungarian
Default : No
Forced : No
Text #22
ID : 26
Format : UTF-8
Codec ID : S_TEXT/UTF8
Codec ID/Info : UTF-8 Plain Text
Duration : 59 min 54 s
Bit rate : 39 b/s
Count of elements : 632
Stream size : 17.5 KiB (0%)
Title : Indonesian
Language : Indonesian
Default : No
Forced : No
Text #23
ID : 27
Format : UTF-8
Codec ID : S_TEXT/UTF8
Codec ID/Info : UTF-8 Plain Text
Duration : 59 min 56 s
Bit rate : 0 b/s
Count of elements : 3
Stream size : 75.0 Bytes (0%)
Title : Italian, Forced
Language : Italian
Default : No
Forced : No
Text #24
ID : 28
Format : UTF-8
Codec ID : S_TEXT/UTF8
Codec ID/Info : UTF-8 Plain Text
Duration : 59 min 56 s
Bit rate : 39 b/s
Count of elements : 601
Stream size : 17.2 KiB (0%)
Title : Italian, Full
Language : Italian
Default : No
Forced : No
Text #25
ID : 29
Format : UTF-8
Codec ID : S_TEXT/UTF8
Codec ID/Info : UTF-8 Plain Text
Duration : 59 min 58 s
Bit rate : 0 b/s
Count of elements : 3
Stream size : 99.0 Bytes (0%)
Title : Japanese, Forced
Language : Japanese
Default : No
Forced : No
Text #26
ID : 30
Format : UTF-8
Codec ID : S_TEXT/UTF8
Codec ID/Info : UTF-8 Plain Text
Duration : 59 min 58 s
Bit rate : 34 b/s
Count of elements : 612
Stream size : 15.2 KiB (0%)
Title : Japanese, Full
Language : Japanese
Default : No
Forced : No
Text #27
ID : 31
Format : UTF-8
Codec ID : S_TEXT/UTF8
Codec ID/Info : UTF-8 Plain Text
Duration : 59 min 54 s
Bit rate : 46 b/s
Count of elements : 637
Stream size : 20.2 KiB (0%)
Title : Korean
Language : Korean
Default : No
Forced : No
Text #28
ID : 32
Format : UTF-8
Codec ID : S_TEXT/UTF8
Codec ID/Info : UTF-8 Plain Text
Duration : 59 min 54 s
Bit rate : 35 b/s
Count of elements : 589
Stream size : 15.8 KiB (0%)
Title : Norwegian
Language : Norwegian
Default : No
Forced : No
Text #29
ID : 33
Format : UTF-8
Codec ID : S_TEXT/UTF8
Codec ID/Info : UTF-8 Plain Text
Duration : 1 h 0 min
Bit rate : 35 b/s
Count of elements : 525
Stream size : 15.6 KiB (0%)
Title : Dutch
Language : Dutch
Default : No
Forced : No
Text #30
ID : 34
Format : UTF-8
Codec ID : S_TEXT/UTF8
Codec ID/Info : UTF-8 Plain Text
Duration : 59 min 54 s
Bit rate : 0 b/s
Count of elements : 3
Stream size : 74.0 Bytes (0%)
Title : Polish, Forced
Language : Polish
Default : No
Forced : No
Text #31
ID : 35
Format : UTF-8
Codec ID : S_TEXT/UTF8
Codec ID/Info : UTF-8 Plain Text
Duration : 59 min 54 s
Bit rate : 38 b/s
Count of elements : 608
Stream size : 16.9 KiB (0%)
Title : Polish, Full
Language : Polish
Default : No
Forced : No
Text #32
ID : 36
Format : UTF-8
Codec ID : S_TEXT/UTF8
Codec ID/Info : UTF-8 Plain Text
Duration : 59 min 56 s
Bit rate : 39 b/s
Count of elements : 589
Stream size : 17.6 KiB (0%)
Title : Portuguese
Language : Portuguese
Default : No
Forced : No
Text #33
ID : 37
Format : UTF-8
Codec ID : S_TEXT/UTF8
Codec ID/Info : UTF-8 Plain Text
Duration : 59 min 56 s
Bit rate : 0 b/s
Count of elements : 3
Stream size : 73.0 Bytes (0%)
Title : Brazilian Portuguese, Forced
Language : Portuguese
Default : No
Forced : No
Text #34
ID : 38
Format : UTF-8
Codec ID : S_TEXT/UTF8
Codec ID/Info : UTF-8 Plain Text
Duration : 59 min 56 s
Bit rate : 37 b/s
Count of elements : 614
Stream size : 16.6 KiB (0%)
Title : Brazilian Portuguese, Full
Language : Portuguese
Default : No
Forced : No
Text #35
ID : 39
Format : UTF-8
Codec ID : S_TEXT/UTF8
Codec ID/Info : UTF-8 Plain Text
Duration : 59 min 54 s
Bit rate : 40 b/s
Count of elements : 616
Stream size : 17.7 KiB (0%)
Title : Romanian
Language : Romanian
Default : No
Forced : No
Text #36
ID : 40
Format : UTF-8
Codec ID : S_TEXT/UTF8
Codec ID/Info : UTF-8 Plain Text
Duration : 59 min 54 s
Bit rate : 40 b/s
Count of elements : 570
Stream size : 17.8 KiB (0%)
Title : Swedish
Language : Swedish
Default : No
Forced : No
Text #37
ID : 41
Format : UTF-8
Codec ID : S_TEXT/UTF8
Codec ID/Info : UTF-8 Plain Text
Duration : 2 min 55 s
Bit rate : 4 b/s
Count of elements : 2
Stream size : 93.0 Bytes (0%)
Title : Thai, Forced
Language : Thai
Default : No
Forced : No
Text #38
ID : 42
Format : UTF-8
Codec ID : S_TEXT/UTF8
Codec ID/Info : UTF-8 Plain Text
Duration : 59 min 54 s
Bit rate : 104 b/s
Count of elements : 634
Stream size : 45.8 KiB (0%)
Title : Thai, Full
Language : Thai
Default : No
Forced : No
Text #39
ID : 43
Format : UTF-8
Codec ID : S_TEXT/UTF8
Codec ID/Info : UTF-8 Plain Text
Duration : 59 min 54 s
Bit rate : 0 b/s
Count of elements : 3
Stream size : 78.0 Bytes (0%)
Title : Turkish, Forced
Language : Turkish
Default : No
Forced : No
Text #40
ID : 44
Format : UTF-8
Codec ID : S_TEXT/UTF8
Codec ID/Info : UTF-8 Plain Text
Duration : 59 min 54 s
Bit rate : 39 b/s
Count of elements : 626
Stream size : 17.5 KiB (0%)
Title : Turkish, Full
Language : Turkish
Default : No
Forced : No
Text #41
ID : 45
Format : UTF-8
Codec ID : S_TEXT/UTF8
Codec ID/Info : UTF-8 Plain Text
Duration : 59 min 54 s
Bit rate : 98 b/s
Count of elements : 632
Stream size : 43.1 KiB (0%)
Title : Vietnamese
Language : Vietnamese
Default : No
Forced : No
Text #42
ID : 46
Format : UTF-8
Codec ID : S_TEXT/UTF8
Codec ID/Info : UTF-8 Plain Text
Duration : 59 min 54 s
Bit rate : 34 b/s
Count of elements : 633
Stream size : 15.3 KiB (0%)
Title : Simplified Chinese
Language : Chinese
Default : No
Forced : No
Text #43
ID : 47
Format : UTF-8
Codec ID : S_TEXT/UTF8
Codec ID/Info : UTF-8 Plain Text
Duration : 59 min 54 s
Bit rate : 35 b/s
Count of elements : 635
Stream size : 15.5 KiB (0%)
Title : Traditional Chinese
Language : Chinese
Default : No
Forced : No

Скриншоты


Роли дублировали


Раздача от:
Как качать и Как раздавать  ·  Часто задаваемые Вопросы и Ответы (FAQ)