Загружается…
Ошибка

Мандалорец / The Mandalorian / Сезон: 1 / Серии: 1-8 из 8 (Дебора Чоу / Deborah Chow, Рик Фамуйива / Rick Famuyiwa, Дэйв Филони / Dave Filoni) [2019, США, Фантастика, боевик, приключения, WEB-DL 1080p] MVO (AlexFilm) + Original + Sub (Rus, Eng)

Страницы:  1

Ответить на тему
Автор Сообщение

KiberPirat

Мандалорец | The Mandalorian- Год выпуска: 2019
Страна: США
Жанр: Фантастика, боевик, приключения
Продолжительность: ~ 00:38:00-Перевод: Профессиональный (многоголосый закадровый) | AlexFilm-Режиссёр: Дебора Чоу / Deborah Chow, Рик Фамуйива / Rick Famuyiwa, Дэйв Филони / Dave Filoni, Брайс Даллас Ховард / Bryce Dallas Howard, Тайка Вайтити / Taika Waititi-В ролях: Педро Паскаль, Кайл Пацек, Брендан Уэйн, Бернард Баллен, Александра Гилман, Луис Ричард Гомес, Джамал Антар, Тейт Флетчер, Тони Табоада, Омид Абтахи, Джина Карано, Джанкарло Эспозито, Вернер Херцог, Джулия Джонс, Ник Нолти, Тайка Вайтити, Карл Уэзерс, Марк Бун Джуниор, Билл Бёрр, Доминик Паке, Гари Зиверс, Эмили Суоллоу, Наталия Тена, Минг-На, Джуд С. Уоко-Описание: Одинокий мандалорец-наёмник живёт на краю обитаемой галактики, куда не дотягивается закон Новой Республики. Представитель некогда могучей расы благородных воинов теперь вынужден влачить жалкое существование среди отбросов общества.- -Качество: WEB-DL 1080p
Контейнер: MKV
Видео: MPEG-4 AVC, 1920x1080 (16:9), 23,976 кадра/сек, ~ 8457 Кбит/сек, 0.170 bit/pixel
Видео 2-6 серия: MPEG-4 AVC, 1920x804 (2,40:1), 23,976 кадра/сек, 8000-10200 Кбит/сек, 0.275 bit/pixel
Аудио Rus: AC3, 48 kHz, 3/2 (L,C,R,l,r) + LFE ch, 384 Кбит/сек | AlexFilm
Аудио Eng: E-AC3 JOC, 48 kHz, 3/2 (L,C,R,l,r) + LFE ch, 768 Кбит/сек
Субтитры: Русские (Где тексты, Лебовски), английские (Full, SDH)
Реклама: Отсутствует-

MediaInfo

Общее
Уникальный идентификатор : 314187731456904942771977959968083786046 (0xEC5E5B23F160CAF433002003B11BB93E)
Формат : Matroska
Версия формата : Version 4
Размер файла : 2,60 Гбайт
Продолжительность : 38 м. 46 с.
Режим общего битрейта : Переменный
Общий поток : 9611 Кбит/сек
Название фильма : The Mandalorian 01x01 (Chapter One) - Release by Wentworth_Miller
Дата кодирования : UTC 2019-11-13 08:04:58
Программа кодирования : mkvmerge v19.0.0 ('Brave Captain') 32-bit
Библиотека кодирования : libebml v1.3.5 + libmatroska v1.4.8
Видео
Идентификатор : 1
Формат : AVC
Формат/Информация : Advanced Video Codec
Профиль формата : High@L4
Настройки формата : CABAC / 4 Ref Frames
Параметр CABAC формата : Да
Параметр RefFrames формата : 4 кадра
Идентификатор кодека : V_MPEG4/ISO/AVC
Продолжительность : 38 м. 46 с.
Вид битрейта : Переменный
Битрейт : 8457 Кбит/сек
Максимальный битрейт : 12,7 Мбит/сек
Ширина : 1920 пикселей
Высота : 1080 пикселей
Соотношение сторон : 16:9
Режим частоты кадров : Постоянный
Частота кадров : 23,976 (24000/1001) кадра/сек
Цветовое пространство : YUV
Субдискретизация насыщенности : 4:2:0
Битовая глубина : 8 бит
Тип развёртки : Прогрессивная
Бит/(Пиксели*Кадры) : 0.170
Размер потока : 2,29 Гбайт (88%)
Язык : English
Default : Да
Forced : Нет
Цветовой диапазон : Limited
Основные цвета : BT.709
Характеристики трансфера : BT.709
Коэффициенты матрицы : BT.709
Аудио #1
Идентификатор : 2
Формат : AC-3
Формат/Информация : Audio Coding 3
Коммерческое название : Dolby Digital
Идентификатор кодека : A_AC3
Продолжительность : 38 м. 46 с.
Вид битрейта : Постоянный
Битрейт : 384 Кбит/сек
Каналы : 6 каналов
ChannelLayout : L R C LFE Ls Rs
Частота : 48,0 КГц
Частота кадров : 31,250 кадров/сек (1536 SPF)
Метод сжатия : С потерями
Размер потока : 106 Мбайт (4%)
Заголовок : AlexFilm
Язык : Russian
ServiceKind/String : Complete Main
Default : Да
Forced : Нет
Аудио #2
Идентификатор : 3
Формат : E-AC-3 JOC
Формат/Информация : Enhanced AC-3 with Joint Object Coding
Коммерческое название : Dolby Digital Plus with Dolby Atmos
Идентификатор кодека : A_EAC3
Продолжительность : 38 м. 46 с.
Вид битрейта : Постоянный
Битрейт : 768 Кбит/сек
Каналы : 6 каналов
ChannelLayout : L R C LFE Ls Rs
Частота : 48,0 КГц
Частота кадров : 31,250 кадров/сек (1536 SPF)
Метод сжатия : С потерями
Размер потока : 213 Мбайт (8%)
Язык : English
ServiceKind/String : Complete Main
Default : Нет
Forced : Нет
ComplexityIndex : 16
NumberOfDynamicObjects : 15
BedChannelCount/String : 1 канал
BedChannelConfiguration : LFE
Текст #1
Идентификатор : 4
Формат : UTF-8
Идентификатор кодека : S_TEXT/UTF8
Идентификатор кодека/Информация : UTF-8 Plain Text
Продолжительность : 35 м. 3 с.
Битрейт : 52 бит/сек
ElementCount : 302
Размер потока : 13,5 Кбайт (0%)
Заголовок : FOCS
Язык : Russian
Default : Да
Forced : Нет
Текст #2
Идентификатор : 5
Формат : UTF-8
Идентификатор кодека : S_TEXT/UTF8
Идентификатор кодека/Информация : UTF-8 Plain Text
Продолжительность : 35 м. 34 с.
Битрейт : 41 бит/сек
ElementCount : 428
Размер потока : 10,9 Кбайт (0%)
Заголовок : English
Язык : English
Default : Нет
Forced : Нет
Текст #3
Идентификатор : 6
Формат : UTF-8
Идентификатор кодека : S_TEXT/UTF8
Идентификатор кодека/Информация : UTF-8 Plain Text
Продолжительность : 34 м. 54 с.
Битрейт : 29 бит/сек
ElementCount : 288
Размер потока : 7,63 Кбайт (0%)
Заголовок : English (SDH)
Язык : English
Default : Нет
Forced : Нет
Общее
Уникальный идентификатор : 340090946511172682655431676729806855795 (0xFFDB223EC1A2CA34F3DC1E1EFD0C9E73)
Полное имя : E:\The Mandalorian - Season 1 (AlexFilm) WEB-DL 1080p\The.Mandalorian.s01e02.WEB-DL.1080p.Rus.Eng.AlexFilm.mkv.mkv
Формат : Matroska
Версия формата : Version 4
Размер файла : 2,42 Гбайт
Продолжительность : 31 м. 50 с.
Общий поток : 10,9 Мбит/сек
Дата кодирования : UTC 2019-11-18 03:17:15
Программа кодирования : mkvmerge v40.0.0 ('Old Town Road + Pony') 64-bit
Библиотека кодирования : libebml v1.3.9 + libmatroska v1.5.2
Видео
Идентификатор : 1
Формат : AVC
Формат/Информация : Advanced Video Codec
Профиль формата : High@L4.1
Настройки формата : CABAC / 5 Ref Frames
Параметр CABAC формата : Да
Параметр RefFrames формата : 5 кадров
Идентификатор кодека : V_MPEG4/ISO/AVC
Продолжительность : 31 м. 50 с.
Битрейт : 10,2 Мбит/сек
Ширина : 1920 пикселей
Высота : 804 пикселя
Соотношение сторон : 2,40:1
Режим частоты кадров : Постоянный
Частота кадров : 23,976 (24000/1001) кадра/сек
Цветовое пространство : YUV
Субдискретизация насыщенности : 4:2:0
Битовая глубина : 8 бит
Тип развёртки : Прогрессивная
Бит/(Пиксели*Кадры) : 0.275
Размер потока : 2,26 Гбайт (93%)
Библиотека кодирования : x264 core 157 r2935 545de2f
Настройки программы : cabac=1 / ref=5 / deblock=1:-1:-1 / analyse=0x3:0x113 / me=umh / subme=9 / psy=1 / psy_rd=1.00:0.15 / mixed_ref=1 / me_range=16 / chroma_me=1 / trellis=2 / 8x8dct=1 / cqm=0 / deadzone=21,11 / fast_pskip=1 / chroma_qp_offset=-3 / threads=25 / lookahead_threads=2 / sliced_threads=0 / nr=0 / decimate=0 / interlaced=0 / bluray_compat=0 / constrained_intra=0 / bframes=3 / b_pyramid=2 / b_adapt=2 / b_bias=0 / direct=3 / weightb=1 / open_gop=0 / weightp=2 / keyint=250 / keyint_min=23 / scenecut=40 / intra_refresh=0 / rc_lookahead=50 / rc=crf / mbtree=1 / crf=14.0 / qcomp=0.60 / qpmin=0 / qpmax=69 / qpstep=4 / ip_ratio=1.40 / aq=1:1.00
Язык : English
Default : Да
Forced : Нет
Аудио #1
Идентификатор : 2
Формат : AC-3
Формат/Информация : Audio Coding 3
Коммерческое название : Dolby Digital
Идентификатор кодека : A_AC3
Продолжительность : 30 м. 3 с.
Вид битрейта : Постоянный
Битрейт : 384 Кбит/сек
Каналы : 6 каналов
ChannelLayout : L R C LFE Ls Rs
Частота : 48,0 КГц
Частота кадров : 31,250 кадров/сек (1536 SPF)
Метод сжатия : С потерями
Размер потока : 82,5 Мбайт (3%)
Заголовок : DD 5.1 AleXFilm
Язык : Russian
ServiceKind/String : Complete Main
Default : Да
Forced : Нет
Аудио #2
Идентификатор : 3
Формат : AC-3
Формат/Информация : Audio Coding 3
Коммерческое название : Dolby Digital
Идентификатор кодека : A_AC3
Продолжительность : 30 м. 3 с.
Вид битрейта : Постоянный
Битрейт : 384 Кбит/сек
Каналы : 6 каналов
ChannelLayout : L R C LFE Ls Rs
Частота : 48,0 КГц
Частота кадров : 31,250 кадров/сек (1536 SPF)
Метод сжатия : С потерями
Размер потока : 82,5 Мбайт (3%)
Заголовок : Eng
Язык : English
ServiceKind/String : Complete Main
Default : Нет
Forced : Нет
-

Скриншоты