Загружается…
Ошибка

Скачать бесплатно торрент Вторая страна / Ni no Kuni / Другой мир [Movie] [Без хардсаба] [JAP+Sub] [2019, приключения, фэнтези, WEBRip] [1080p] torrent download

Страницы:  1

Ответить на тему
Автор Сообщение

KiberPirat

Вторая страна / Ni no Kuni / Другой мир / 二ノ国
Страна: Япония
Год выпуска: 2019
Жанр: приключения, фэнтези
Тип: Movie
Продолжительность: 107 мин.
Режиссер: Момосэ Ёсиюки
Студия: OLM
Описание: Два школьника по имени Ю и Хару отправляются в другой мир, чтобы спасти жизнь своей подруги Котоны и в настоящей, и в параллельной Вселенной. Но любовь усложняет их путешествие...
Качество: WEBRip
Тип релиза: Без хардсаба
Формат видео: MKV
Наличие линковки: Нет
Релиз/Автор рипа: HorrendousSubs
Видео: AVC, 1920x1080, 4 020 kb/s, 23.976 fps, 8 bit
Аудио: jpn(int), E-AC-3, 128 kb/s, 48.0 kHz, 2 ch
Субтитры 1-22, 24-29: eng, ara, ces, dan, deu, gre, spa, spa, fin, fra, heb, hun, ind, ita, jpn, kor, nor, dut, pol, por, por, ron, swe, tha, tur, vie, chi, chi, (int), SRT
Субтитры 23: rus(int), SRT, перевод: Леон Иванихин

Подробные тех. данные

General
Unique ID : 24690622860418060038184930961973461485 (0x12933DB19A2C6633EDA29CFDB0BE41ED)
Complete name : F:\1\ZR\[HorrendousSubs] Ni no Kuni [1080p]\[HorrendousSubs] Ni no Kuni [1080p].mkv
Format : Matroska
Format version : Version 4
File size : 3.08 GiB
Duration : 1 h 46 min
Overall bit rate mode : Variable
Overall bit rate : 4 117 kb/s
Encoded date : UTC 2020-01-16 14:35:36
Writing application : mkvmerge v38.0.0 ('The Silent Type') 64-bit
Writing library : libebml v1.3.9 + libmatroska v1.5.2
Video
ID : 1
Format : AVC
Format/Info : Advanced Video Codec
Format profile : Main@L4
Format settings : CABAC / 3 Ref Frames
Format settings, CABAC : Yes
Format settings, Reference frames : 3 frames
Codec ID : V_MPEG4/ISO/AVC
Duration : 1 h 46 min
Bit rate mode : Variable
Bit rate : 4 020 kb/s
Maximum bit rate : 6 030 kb/s
Width : 1 920 pixels
Height : 1 080 pixels
Display aspect ratio : 16:9
Frame rate mode : Constant
Frame rate : 23.976 (24000/1001) FPS
Color space : YUV
Chroma subsampling : 4:2:0
Bit depth : 8 bits
Scan type : Progressive
Bits/(Pixel*Frame) : 0.081
Stream size : 2.98 GiB (97%)
Writing library : x264 core 148 r2715 7e75228
Encoding settings : cabac=1 / ref=3 / deblock=1:0:0 / analyse=0x1:0x111 / me=umh / subme=10 / psy=1 / psy_rd=1.00:0.00 / mixed_ref=1 / me_range=24 / chroma_me=1 / trellis=2 / 8x8dct=0 / cqm=0 / deadzone=21,11 / fast_pskip=1 / chroma_qp_offset=-2 / threads=8 / lookahead_threads=1 / sliced_threads=0 / nr=0 / decimate=1 / interlaced=0 / bluray_compat=0 / stitchable=1 / constrained_intra=0 / bframes=2 / b_pyramid=0 / b_adapt=2 / b_bias=0 / direct=3 / weightb=1 / open_gop=0 / weightp=2 / keyint=250 / keyint_min=23 / scenecut=0 / intra_refresh=0 / rc_lookahead=48 / rc=2pass / mbtree=1 / bitrate=4020 / ratetol=1.0 / qcomp=0.50 / qpmin=6 / qpmax=51 / qpstep=4 / cplxblur=20.0 / qblur=0.5 / vbv_maxrate=6030 / vbv_bufsize=8040 / nal_hrd=vbr / filler=0 / ip_ratio=1.40 / aq=1:1.00
Default : Yes
Forced : No
Audio
ID : 2
Format : E-AC-3
Format/Info : Enhanced AC-3
Commercial name : Dolby Digital Plus
Codec ID : A_EAC3
Duration : 1 h 46 min
Bit rate mode : Constant
Bit rate : 128 kb/s
Channel(s) : 2 channels
Channel layout : L R
Sampling rate : 48.0 kHz
Frame rate : 31.250 FPS (1536 SPF)
Compression mode : Lossy
Stream size : 97.9 MiB (3%)
Language : Japanese
Service kind : Complete Main
Default : Yes
Forced : No
Text #1
ID : 3
Format : UTF-8
Codec ID : S_TEXT/UTF8
Codec ID/Info : UTF-8 Plain Text
Duration : 1 h 40 min
Bit rate : 52 b/s
Count of elements : 1376
Stream size : 38.4 KiB (0%)
Language : English
Default : Yes
Forced : No
Text #2
ID : 4
Format : UTF-8
Codec ID : S_TEXT/UTF8
Codec ID/Info : UTF-8 Plain Text
Duration : 1 h 44 min
Bit rate : 87 b/s
Count of elements : 1496
Stream size : 67.3 KiB (0%)
Language : Arabic
Default : No
Forced : No
Text #3
ID : 5
Format : UTF-8
Codec ID : S_TEXT/UTF8
Codec ID/Info : UTF-8 Plain Text
Duration : 1 h 44 min
Bit rate : 49 b/s
Count of elements : 1457
Stream size : 38.1 KiB (0%)
Language : Czech
Default : No
Forced : No
Text #4
ID : 6
Format : UTF-8
Codec ID : S_TEXT/UTF8
Codec ID/Info : UTF-8 Plain Text
Duration : 1 h 44 min
Bit rate : 50 b/s
Count of elements : 1388
Stream size : 38.5 KiB (0%)
Language : Danish
Default : No
Forced : No
Text #5
ID : 7
Format : UTF-8
Codec ID : S_TEXT/UTF8
Codec ID/Info : UTF-8 Plain Text
Duration : 1 h 44 min
Bit rate : 53 b/s
Count of elements : 1422
Stream size : 40.8 KiB (0%)
Language : German
Default : No
Forced : No
Text #6
ID : 8
Format : UTF-8
Codec ID : S_TEXT/UTF8
Codec ID/Info : UTF-8 Plain Text
Duration : 1 h 44 min
Bit rate : 90 b/s
Count of elements : 1492
Stream size : 69.2 KiB (0%)
Language : Greek
Default : No
Forced : No
Text #7
ID : 9
Format : UTF-8
Codec ID : S_TEXT/UTF8
Codec ID/Info : UTF-8 Plain Text
Duration : 1 h 44 min
Bit rate : 48 b/s
Count of elements : 1441
Stream size : 37.3 KiB (0%)
Language : Spanish
Default : No
Forced : No
Text #8
ID : 10
Format : UTF-8
Codec ID : S_TEXT/UTF8
Codec ID/Info : UTF-8 Plain Text
Duration : 1 h 44 min
Bit rate : 50 b/s
Count of elements : 1489
Stream size : 38.9 KiB (0%)
Title : European
Language : Spanish
Default : No
Forced : No
Text #9
ID : 11
Format : UTF-8
Codec ID : S_TEXT/UTF8
Codec ID/Info : UTF-8 Plain Text
Duration : 1 h 44 min
Bit rate : 47 b/s
Count of elements : 1361
Stream size : 36.5 KiB (0%)
Language : Finnish
Default : No
Forced : No
Text #10
ID : 12
Format : UTF-8
Codec ID : S_TEXT/UTF8
Codec ID/Info : UTF-8 Plain Text
Duration : 1 h 44 min
Bit rate : 51 b/s
Count of elements : 1451
Stream size : 39.5 KiB (0%)
Language : French
Default : No
Forced : No
Text #11
ID : 13
Format : UTF-8
Codec ID : S_TEXT/UTF8
Codec ID/Info : UTF-8 Plain Text
Duration : 1 h 44 min
Bit rate : 80 b/s
Count of elements : 1475
Stream size : 61.9 KiB (0%)
Language : Hebrew
Default : No
Forced : No
Text #12
ID : 14
Format : UTF-8
Codec ID : S_TEXT/UTF8
Codec ID/Info : UTF-8 Plain Text
Duration : 1 h 44 min
Bit rate : 50 b/s
Count of elements : 1464
Stream size : 39.1 KiB (0%)
Language : Hungarian
Default : No
Forced : No
Text #13
ID : 15
Format : UTF-8
Codec ID : S_TEXT/UTF8
Codec ID/Info : UTF-8 Plain Text
Duration : 1 h 44 min
Bit rate : 47 b/s
Count of elements : 1459
Stream size : 36.2 KiB (0%)
Language : Indonesian
Default : No
Forced : No
Text #14
ID : 16
Format : UTF-8
Codec ID : S_TEXT/UTF8
Codec ID/Info : UTF-8 Plain Text
Duration : 1 h 44 min
Bit rate : 52 b/s
Count of elements : 1486
Stream size : 40.0 KiB (0%)
Language : Italian
Default : No
Forced : No
Text #15
ID : 17
Format : UTF-8
Codec ID : S_TEXT/UTF8
Codec ID/Info : UTF-8 Plain Text
Duration : 1 h 45 min
Bit rate : 85 b/s
Count of elements : 1668
Stream size : 65.6 KiB (0%)
Title : SDH
Language : Japanese
Default : No
Forced : No
Text #16
ID : 18
Format : UTF-8
Codec ID : S_TEXT/UTF8
Codec ID/Info : UTF-8 Plain Text
Duration : 1 h 44 min
Bit rate : 65 b/s
Count of elements : 1501
Stream size : 50.1 KiB (0%)
Language : Korean
Default : No
Forced : No
Text #17
ID : 19
Format : UTF-8
Codec ID : S_TEXT/UTF8
Codec ID/Info : UTF-8 Plain Text
Duration : 1 h 44 min
Bit rate : 51 b/s
Count of elements : 1461
Stream size : 39.5 KiB (0%)
Language : Norwegian
Default : No
Forced : No
Text #18
ID : 20
Format : UTF-8
Codec ID : S_TEXT/UTF8
Codec ID/Info : UTF-8 Plain Text
Duration : 1 h 44 min
Bit rate : 49 b/s
Count of elements : 1404
Stream size : 38.0 KiB (0%)
Language : Dutch
Default : No
Forced : No
Text #19
ID : 21
Format : UTF-8
Codec ID : S_TEXT/UTF8
Codec ID/Info : UTF-8 Plain Text
Duration : 1 h 44 min
Bit rate : 47 b/s
Count of elements : 1495
Stream size : 36.4 KiB (0%)
Language : Polish
Default : No
Forced : No
Text #20
ID : 22
Format : UTF-8
Codec ID : S_TEXT/UTF8
Codec ID/Info : UTF-8 Plain Text
Duration : 1 h 44 min
Bit rate : 51 b/s
Count of elements : 1484
Stream size : 39.5 KiB (0%)
Language : Portuguese
Default : No
Forced : No
Text #21
ID : 23
Format : UTF-8
Codec ID : S_TEXT/UTF8
Codec ID/Info : UTF-8 Plain Text
Duration : 1 h 44 min
Bit rate : 50 b/s
Count of elements : 1497
Stream size : 39.1 KiB (0%)
Title : Brazilian
Language : Portuguese
Default : No
Forced : No
Text #22
ID : 24
Format : UTF-8
Codec ID : S_TEXT/UTF8
Codec ID/Info : UTF-8 Plain Text
Duration : 1 h 44 min
Bit rate : 55 b/s
Count of elements : 1427
Stream size : 42.4 KiB (0%)
Language : Romanian
Default : No
Forced : No
Text #23
ID : 25
Format : UTF-8
Codec ID : S_TEXT/UTF8
Codec ID/Info : UTF-8 Plain Text
Duration : 1 h 44 min
Bit rate : 83 b/s
Count of elements : 1491
Stream size : 64.3 KiB (0%)
Language : Russian
Default : No
Forced : No
Text #24
ID : 26
Format : UTF-8
Codec ID : S_TEXT/UTF8
Codec ID/Info : UTF-8 Plain Text
Duration : 1 h 44 min
Bit rate : 50 b/s
Count of elements : 1492
Stream size : 39.1 KiB (0%)
Language : Swedish
Default : No
Forced : No
Text #25
ID : 27
Format : UTF-8
Codec ID : S_TEXT/UTF8
Codec ID/Info : UTF-8 Plain Text
Duration : 1 h 44 min
Bit rate : 158 b/s
Count of elements : 1472
Stream size : 122 KiB (0%)
Language : Thai
Default : No
Forced : No
Text #26
ID : 28
Format : UTF-8
Codec ID : S_TEXT/UTF8
Codec ID/Info : UTF-8 Plain Text
Duration : 1 h 44 min
Bit rate : 50 b/s
Count of elements : 1368
Stream size : 38.6 KiB (0%)
Language : Turkish
Default : No
Forced : No
Text #27
ID : 29
Format : UTF-8
Codec ID : S_TEXT/UTF8
Codec ID/Info : UTF-8 Plain Text
Duration : 1 h 44 min
Bit rate : 72 b/s
Count of elements : 1492
Stream size : 55.6 KiB (0%)
Language : Vietnamese
Default : No
Forced : No
Text #28
ID : 30
Format : UTF-8
Codec ID : S_TEXT/UTF8
Codec ID/Info : UTF-8 Plain Text
Duration : 1 h 44 min
Bit rate : 50 b/s
Count of elements : 1499
Stream size : 38.5 KiB (0%)
Title : Simplified
Language : Chinese
Default : No
Forced : No
Text #29
ID : 31
Format : UTF-8
Codec ID : S_TEXT/UTF8
Codec ID/Info : UTF-8 Plain Text
Duration : 1 h 44 min
Bit rate : 52 b/s
Count of elements : 1497
Stream size : 40.4 KiB (0%)
Title : Traditional
Language : Chinese
Default : No
Forced : No

Скриншоты


Раздача от:
Как качать и Как раздавать  ·  Часто задаваемые Вопросы и Ответы (FAQ)