Загружается…
Ошибка

Скачать бесплатно торрент Звёздные войны: Скайуокер. Восход / Star Wars: Episode IX - The Rise of Skywalker (Джей Джей Абрамс / J.J. Abrams) [2019, США, фантастика, фэнтези, боевик, приключения, BDRip 720p] Dub + Sub Rus, Eng + Original Eng torrent download

Страницы:  1

Ответить на тему
Автор Сообщение

KiberPirat

Звёздные войны: Скайуокер. Восход / Star Wars: Episode IX - The Rise of Skywalker
Страна: США
Студия: Lucasfilm, Bad Robot, Digital Makeup Group
Жанр: фантастика, фэнтези, боевик, приключения
Год выпуска: 2019
Продолжительность: 02:21:53--Перевод: Профессиональный (дублированный)
Субтитры: русские (форсированные, полные), английские
Оригинальная аудиодорожка: английская--Режиссер: Джей Джей Абрамс / J.J. Abrams--В ролях: Дэйзи Ридли, Адам Драйвер, Кэрри Фишер, Марк Хэмилл, Джон Бойега, Оскар Айзек, Энтони Дэниелс, Наоми Аки, Донал Глисон, Ричард Э. Грант--Описание: Фильм завершает невероятную историю семьи Скайуокеров, длящуюся уже более сорока лет, и обещает дать ответы на все загадки из предыдущих серий. Зрителя ожидают старые и новые герои, уникальные миры, увлекательные путешествия на край Галактики и грандиозный финал фантастической саги.--Доп. информация: Исходный ремукс, дубляж и субтитры скачаны из сети.
Сохранена навигация ро главам.--Сэмпл: https://yadi.sk/i/8EGM80T2kLA0vw--Тип релиза: BDRip 720p Исходник: Star.Wars.Episode.IX.The.Rise.of.Skywalker.2019.1080p.BluRay.REMUX.AVC.DTS-HD.MA.7.1-FGT
Контейнер: MKV
Видео кодек: H.264
Аудио кодек: DTS, AC-3
Видео: MPEG4/AVC, 2,40:1, 23.976 (24000/1001) FPS, 1280x536p, 6686 kb/s
Аудио 1: Русский, AC-3, 48.0 kHz, 5.1, 384 kb/s - Дубляж iTunes
Аудио 2: Английский, DTS, 48.0 kHz, 5.1, 1509 kb/s, 24 bits
Формат субтитров: softsub (SRT)
Релиз:

MediaInfo

x264
x264 [info]: profile Progressive High, level 4.1, 4:2:0, 8-bit
x264 [info]: frame I:1284 Avg QP:15.86 size:114085
x264 [info]: frame P:45756 Avg QP:17.44 size: 57900
x264 [info]: frame B:157068 Avg QP:18.97 size: 27500
x264 [info]: consecutive B-frames: 3.3% 3.2% 10.1% 15.4% 13.7% 38.1% 5.2% 2.0% 1.5% 1.9% 1.9% 1.2% 1.0% 0.9% 0.3% 0.1% 0.2%
x264 [info]: kb/s:6686.41
encoded 204108 frames, 3.09 fps, 6686.41 kb/s
Общее
Уникальный идентификатор : 156556266477117713281287378201778404167 (0x75C7A3E17565431946E2F734D6953B47)
Полное имя : F:\Users\LEV\Videos\Star.Wars.Episode.IX.The.Rise.of.Skywalker.2019.x264.Dub.mkv
Формат : Matroska
Версия формата : Version 4
Размер файла : 8,51 Гбайт
Продолжительность : 2 ч. 21 м.
Общий поток : 8582 Кбит/сек
Название фильма : Star.Wars.Episode.IX.The.Rise.of.Skywalker.2019 - Rutracker
Дата кодирования : UTC 2020-03-20 06:49:03
Программа кодирования : mkvmerge v44.0.0 ('Domino') 64-bit
Библиотека кодирования : libebml v1.3.10 + libmatroska v1.5.2
Обложка : Yes
Attachments : cover.jpg
Видео
Идентификатор : 1
Формат : AVC
Формат/Информация : Advanced Video Codec
Профиль формата : High@L4.1
Настройки формата : CABAC / 12 Ref Frames
Параметр CABAC формата : Да
Параметр RefFrames формата : 12 кадров
Идентификатор кодека : V_MPEG4/ISO/AVC
Продолжительность : 2 ч. 21 м.
Битрейт : 6686 Кбит/сек
Ширина : 1280 пикселей
Высота : 536 пикселей
Соотношение сторон : 2,40:1
Режим частоты кадров : Постоянный
Частота кадров : 23,976 (24000/1001) кадра/сек
Цветовое пространство : YUV
Субдискретизация насыщенности : 4:2:0
Битовая глубина : 8 бит
Тип развёртки : Прогрессивная
Бит/(Пиксели*Кадры) : 0.406
Размер потока : 6,63 Гбайт (78%)
Заголовок : Star.Wars.Episode.IX.The.Rise.of.Skywalker.2019 - ripped by <<LION1234>>
Библиотека кодирования : x264 core 157 r2969 d4099dd
Настройки программы : cabac=1 / ref=12 / deblock=1:-3:-3 / analyse=0x3:0x113 / me=umh / subme=10 / psy=1 / psy_rd=0.90:0.00 / mixed_ref=1 / me_range=32 / chroma_me=1 / trellis=2 / 8x8dct=1 / cqm=0 / deadzone=21,11 / fast_pskip=0 / chroma_qp_offset=-2 / threads=6 / lookahead_threads=1 / sliced_threads=0 / nr=0 / decimate=0 / interlaced=0 / bluray_compat=0 / constrained_intra=0 / bframes=16 / b_pyramid=2 / b_adapt=2 / b_bias=0 / direct=3 / weightb=1 / open_gop=0 / weightp=2 / keyint=240 / keyint_min=23 / scenecut=40 / intra_refresh=0 / rc_lookahead=40 / rc=crf / mbtree=0 / crf=17.8 / qcomp=0.64 / qpmin=0 / qpmax=69 / qpstep=4 / vbv_maxrate=62500 / vbv_bufsize=78125 / crf_max=0.0 / nal_hrd=none / filler=0 / ip_ratio=1.30 / pb_ratio=1.20 / aq=3:0.76
Default : Да
Forced : Нет
Аудио #1
Идентификатор : 2
Формат : AC-3
Формат/Информация : Audio Coding 3
Коммерческое название : Dolby Digital
Идентификатор кодека : A_AC3
Продолжительность : 2 ч. 21 м.
Вид битрейта : Постоянный
Битрейт : 384 Кбит/сек
Каналы : 6 каналов
ChannelLayout : L R C LFE Ls Rs
Частота : 48,0 КГц
Частота кадров : 31,250 кадров/сек (1536 SPF)
Метод сжатия : С потерями
Размер потока : 390 Мбайт (4%)
Заголовок : дубляж
Язык : Russian
ServiceKind/String : Complete Main
Default : Да
Forced : Нет
Аудио #2
Идентификатор : 3
Формат : DTS
Формат/Информация : Digital Theater Systems
Идентификатор кодека : A_DTS
Продолжительность : 2 ч. 21 м.
Вид битрейта : Постоянный
Битрейт : 1509 Кбит/сек
Каналы : 6 каналов
ChannelLayout : C L R Ls Rs LFE
Частота : 48,0 КГц
Частота кадров : 93,750 кадра/сек (512 SPF)
Битовая глубина : 24 бит
Метод сжатия : С потерями
Размер потока : 1,50 Гбайт (18%)
Заголовок : английский
Язык : English
Default : Нет
Forced : Нет
Текст #1
Идентификатор : 4
Формат : UTF-8
Идентификатор кодека : S_TEXT/UTF8
Идентификатор кодека/Информация : UTF-8 Plain Text
Продолжительность : 1 ч. 37 м.
Битрейт : 1 бит/сек
ElementCount : 10
Размер потока : 938 байт (0%)
Заголовок : русские (форсированные)
Язык : Russian
Default : Да
Forced : Нет
Текст #2
Идентификатор : 5
Формат : UTF-8
Идентификатор кодека : S_TEXT/UTF8
Идентификатор кодека/Информация : UTF-8 Plain Text
Продолжительность : 2 ч. 8 м.
Битрейт : 63 бит/сек
ElementCount : 1432
Размер потока : 59,8 Кбайт (0%)
Заголовок : русские
Язык : Russian
Default : Нет
Forced : Нет
Текст #3
Идентификатор : 6
Формат : UTF-8
Идентификатор кодека : S_TEXT/UTF8
Идентификатор кодека/Информация : UTF-8 Plain Text
Продолжительность : 2 ч. 8 м.
Битрейт : 42 бит/сек
ElementCount : 1531
Размер потока : 39,8 Кбайт (0%)
Заголовок : английские
Язык : English
Default : Нет
Forced : Нет
Меню
00:00:00.000 : :Chapter 01
00:00:09.092 : :Chapter 02
00:01:41.017 : :Chapter 03
00:03:47.810 : :Chapter 04
00:06:42.944 : :Chapter 05
00:08:26.714 : :Chapter 06
00:10:04.770 : :Chapter 07
00:12:48.142 : :Chapter 08
00:13:53.999 : :Chapter 09
00:15:17.416 : :Chapter 10
00:17:13.157 : :Chapter 11
00:19:25.497 : :Chapter 12
00:21:28.578 : :Chapter 13
00:25:27.692 : :Chapter 14
00:27:14.883 : :Chapter 15
00:30:41.548 : :Chapter 16
00:35:49.063 : :Chapter 17
00:41:37.661 : :Chapter 18
00:43:15.259 : :Chapter 19
00:45:28.350 : :Chapter 20
00:48:24.276 : :Chapter 21
00:54:37.565 : :Chapter 22
00:58:49.192 : :Chapter 23
01:02:54.771 : :Chapter 24
01:06:22.979 : :Chapter 25
01:09:54.607 : :Chapter 26
01:13:07.383 : :Chapter 27
01:18:23.615 : :Chapter 28
01:23:41.224 : :Chapter 29
01:27:02.550 : :Chapter 30
01:30:23.126 : :Chapter 31
01:35:00.820 : :Chapter 32
01:38:47.880 : :Chapter 33
01:40:36.280 : :Chapter 34
01:43:03.135 : :Chapter 35
01:45:27.863 : :Chapter 36
01:48:48.480 : :Chapter 37
01:53:27.634 : :Chapter 38
01:55:30.757 : :Chapter 39
01:59:02.760 : :Chapter 40
02:01:37.748 : :Chapter 41
02:05:20.429 : :Chapter 42
02:09:43.233 : :Chapter 43
02:12:25.979 : :Chapter 44

Скриншоты


Раздача от:
Как качать и Как раздавать  ·  Часто задаваемые Вопросы и Ответы (FAQ)