Загружается…
Ошибка

Скачать бесплатно торрент Ничего не вижу, ничего не слышу / See No Evil, Hear No Evil (Артур Хиллер / Arthur Hiller) [1989 г., США, боевик, триллер, комедия, криминал, BDRip-AVC] torrent download

Страницы:  1

Ответить на тему
Автор Сообщение

ChernayDAvalk@

Ничего не вижу, ничего не слышу / See No Evil, Hear No Evil
Страна: США
Жанр: боевик, триллер, комедия, криминал
Год выпуска: 1989 г.
Продолжительность: 01:42:04
Перевод: Авторский (одноголосый закадровый) Алексей Михалёв
Перевод 2: Авторский (одноголосый закадровый) Михаил Яроцкий (kyberpunk) - ненормативная лексика
Cубтитры: русские
Режиссёр: Артур Хиллер / Arthur Hiller
В ролях: Ричард Прайор, Джин Уайлдер, Джоан Северанс, Кевин Спейси, Алан Норт, Энтони Зерби, Луис Гьямбалво, Керстен Чайлдз, Харди Роулз, Одри Дж. Нинан
Описание: На глазах Дэйва совершается убийство, но он глухой. Уолли все слышал, но он слепой. Вместе они - идеальные свидетели преступления... для самих преступников и единственные подозреваемые для полицейских.
И те и другие начинают поиски неуловимой парочки. Но вдвоем они оказываются хитрее своих преследователей. В конце концов, слепой с глухим решают сами вершить правосудие...
Качество видео: BDRip-AVC
Формат видео: MKV
Видео: 2500 Кбит/с, 1024x552
Аудио: A_AC3 640 Kbps 48.0 KHz
Аудио 2: A_AC3 640 Kbps 48.0 KHz

Отчёт MediaInfo

General
Unique ID : 197860028674642099643604599052869108682 (0x94DA74953CC2128D87E5DF34BBD903CA)
Complete name : C:\Users\1\Desktop\2016\Nichego.ne.vizhu.nichego.ne.slyshu.1989.BDRip.(AVC)-KinoZalSat (1).mkv
Format : Matroska
Format version : Version 4 / Version 2
File size : 2.70 GiB
Duration : 1h 42mn
Overall bit rate : 3 781 Kbps
Movie name : See No Evil, Hear No Evil (Ничего не вижу, ничего не слышу) (1989) - iP27
Encoded date : UTC 2020-03-07 22:44:21
Writing application : mkvmerge v8.6.1 ('Flying') 32bit
Writing library : libebml v1.3.3 + libmatroska v1.4.4
DURATION : 01:38:11.349000000
NUMBER_OF_FRAMES : 1370
NUMBER_OF_BYTES : 98420
_STATISTICS_WRITING_APP : mkvmerge v8.6.1 ('Flying') 32bit
_STATISTICS_WRITING_DATE_UT : 2020-03-07 22:44:21
_STATISTICS_TAGS : BPS DURATION NUMBER_OF_FRAMES NUMBER_OF_BYTES
Video
ID : 1
Format : AVC
Format/Info : Advanced Video Codec
Format profile : High@L4.1
Format settings, CABAC : Yes
Format settings, ReFrames : 5 frames
Codec ID : V_MPEG4/ISO/AVC
Duration : 1h 42mn
Bit rate : 2 500 Kbps
Width : 1 024 pixels
Height : 552 pixels
Display aspect ratio : 1.85:1
Frame rate mode : Constant
Frame rate : 23.976 fps
Color space : YUV
Chroma subsampling : 4:2:0
Bit depth : 8 bits
Scan type : Progressive
Bits/(Pixel*Frame) : 0.184
Stream size : 1.73 GiB (64%)
Writing library : x264 core 119 r2106 07efeb4
Encoding settings : cabac=1 / ref=5 / deblock=1:-3:-3 / analyse=0x3:0x113 / me=umh / subme=8 / psy=1 / psy_rd=1.01:0.00 / mixed_ref=0 / me_range=31 / chroma_me=1 / trellis=0 / 8x8dct=1 / cqm=0 / deadzone=21,11 / fast_pskip=1 / chroma_qp_offset=-2 / threads=9 / sliced_threads=0 / nr=0 / decimate=1 / interlaced=0 / bluray_compat=0 / constrained_intra=0 / bframes=5 / b_pyramid=2 / b_adapt=1 / b_bias=0 / direct=1 / weightb=1 / open_gop=0 / weightp=0 / keyint=250 / keyint_min=23 / scenecut=40 / intra_refresh=0 / rc_lookahead=60 / rc=2pass / mbtree=1 / bitrate=2500 / ratetol=1.0 / qcomp=0.60 / qpmin=15 / qpmax=28 / qpstep=3 / cplxblur=20.0 / qblur=0.5 / ip_ratio=1.40 / aq=1:1.00
Default : Yes
Forced : No
Audio #1
ID : 2
Format : AC-3
Format/Info : Audio Coding 3
Mode extension : CM (complete main)
Format settings, Endianness : Big
Codec ID : A_AC3
Duration : 1h 42mn
Bit rate mode : Constant
Bit rate : 640 Kbps
Channel(s) : 2 channels
Channel positions : Front: L R
Sampling rate : 48.0 KHz
Bit depth : 16 bits
Compression mode : Lossy
Stream size : 467 MiB (17%)
Title : AVO (А. Михалёв)
Language : Russian
Default : No
Forced : No
Audio #2
ID : 3
Format : AC-3
Format/Info : Audio Coding 3
Mode extension : CM (complete main)
Format settings, Endianness : Big
Codec ID : A_AC3
Duration : 1h 42mn
Bit rate mode : Constant
Bit rate : 640 Kbps
Channel(s) : 2 channels
Channel positions : Front: L R
Sampling rate : 48.0 KHz
Bit depth : 16 bits
Compression mode : Lossy
Stream size : 467 MiB (17%)
Title : AVO (М. Яроцкий)
Language : Russian
Default : No
Forced : No
Text #1
ID : 4
Format : UTF-8
Codec ID : S_TEXT/UTF8
Codec ID/Info : UTF-8 Plain Text
Title : Видеосервис
Language : Russian
Default : No
Forced : No
Text #2
ID : 5
Format : UTF-8
Codec ID : S_TEXT/UTF8
Codec ID/Info : UTF-8 Plain Text
Title : по А. Михалёву
Language : Russian
Default : No
Forced : No
Menu
00:00:00.000 : :Chapter 01
00:06:18.544 : :Chapter 02
00:12:29.039 : :Chapter 03
00:20:05.954 : :Chapter 04
00:24:44.733 : :Chapter 05
00:30:22.946 : :Chapter 06
00:35:54.026 : :Chapter 07
00:43:46.498 : :Chapter 08
00:52:08.708 : :Chapter 09
00:57:32.198 : :Chapter 10
01:05:00.438 : :Chapter 11
01:12:27.968 : :Chapter 12
01:17:33.106 : :Chapter 13
01:22:13.511 : :Chapter 14
01:26:41.154 : :Chapter 15
01:33:50.374 : :Chapter 16

Раздача от:
Как качать и Как раздавать  ·  Часто задаваемые Вопросы и Ответы (FAQ) 

KiberPirat

Скрины должны быть того же разрешения что и видео
проверено