[VIDEO] Девчата (Юрий Чулюкин) [1961, комедия, мелодрама, DVDRip] [3GP, 320x]

Страницы:  1

Ответить
Автор
Сообщение

CChuba

Стаж: 10 лет 2 месяца

Сообщений: 17

CChuba · 16-Янв-11 02:05 (7 лет 10 месяцев назад)

Девчата
Год выпуска: 1961
Страна: СССР
Жанр: комедия, мелодрама
Продолжительность: 01:32:09
Перевод: Не требуется
Русские субтитры: нет
Режиссер: Юрий Чулюкин
В ролях: Надежда Румянцева, Николай Рыбников, Люсьена Овчинникова, Станислав Хитров, Инна Макарова, Светлана Дружинина, Нина Меньшикова, Николай Погодин, Михаил Пуговкин, Анатолий Адоскин, Виктор Байков, Роман Филиппов, Алексей Крыченков, Петр Кирюткин
Описание: В сибирский поселок приехала юная повариха Тося Кислицына — наивная и эксцентричная девчонка. Она сует свой нос во все дела, каждому стремится помочь. Местный красавец Илья на спор заводит с Тосей роман, сопровождающийся массой комичных ситуаций…
Качество: DVDRip
Формат: 3GP
Видео кодек: H.264
Аудио кодек: AAC
Видео: AVC, 320x136, 310 Kbps, 25.00fps
Аудио: AAC, 48000Hz, stereo, 128 Kbps
Скриншоты
Download
Для скачивания .torrent файлов необходима регистрация
Сайт не распространяет и не хранит электронные версии произведений, а лишь предоставляет доступ к создаваемому пользователями каталогу ссылок на торрент-файлы, которые содержат только списки хеш-сумм
[Профиль]  [ЛС] 

T.O.X.A

VIP (Адм)

Стаж: 10 лет 6 месяцев

Сообщений: 7368

T.O.X.A · 16-Янв-11 10:04 (спустя 7 часов)

[Цитировать] 

CChuba
Предоставьте, пожалуйста, отчет MediaInfo, т.к в тех.данных у вас не указан видео битрейт.
[Профиль]  [ЛС] 

CChuba

Стаж: 10 лет 2 месяца

Сообщений: 17

CChuba · 16-Янв-11 11:15 (спустя 1 час 10 мин., ред. 16-Янв-11 13:34)

[Цитировать] 

Сорри.
Битрейт 310 kbps
Отчет MediaInfo
Код:
General
Complete name                    : E:\Мои видеозаписи\Фильмы\Devchata.1961.XviD.DVDRip.3gp
Format                           : MPEG-4
Format profile                   : 3GPP Media Release 6 Basic
Codec ID                         : 3gp6
File size                        : 290 MiB
Duration                         : 1h 32mn
Overall bit rate                 : 441 Kbps
Encoded date                     : UTC 2011-01-11 13:18:16
Tagged date                      : UTC 2011-01-11 13:18:16
Video
ID                               : 1
Format                           : AVC
Format/Info                      : Advanced Video Codec
Format profile                   : [email protected]
Format settings, CABAC           : No
Format settings, ReFrames        : 6 frames
Codec ID                         : avc1
Codec ID/Info                    : Advanced Video Coding
Duration                         : 1h 32mn
Bit rate mode                    : Variable
Bit rate                         : 310 Kbps
Maximum bit rate                 : 849 Kbps
Width                            : 320 pixels
Height                           : 136 pixels
Display aspect ratio             : 2.35:1
Frame rate mode                  : Constant
Frame rate                       : 25.000 fps
Color space                      : YUV
Chroma subsampling               : 4:2:0
Bit depth                        : 8 bits
Scan type                        : Progressive
Bits/(Pixel*Frame)               : 0.285
Stream size                      : 204 MiB (70%)
Title                            : Imported with GPAC 0.4.6-DEV (build 1)
Writing library                  : x264 core 92 r1510 33d382a
Encoding settings                : cabac=0 / ref=6 / deblock=1:-2:-1 / analyse=0x1:0x131 / me=umh / subme=7 / psy=1 / psy_rd=1.00:0.00 / mixed_ref=1 / me_range=16 / chroma_me=1 / trellis=0 / 8x8dct=0 / cqm=0 / deadzone=21,11 / fast_pskip=0 / chroma_qp_offset=-2 / threads=3 / sliced_threads=0 / nr=0 / decimate=0 / interlaced=0 / constrained_intra=0 / bframes=0 / wpredp=0 / keyint=250 / keyint_min=25 / scenecut=40 / intra_refresh=0 / rc_lookahead=40 / rc=2pass / mbtree=1 / bitrate=310 / ratetol=1.0 / qcomp=0.60 / qpmin=10 / qpmax=51 / qpstep=4 / cplxblur=20.0 / qblur=0.5 / ip_ratio=1.40 / aq=1:1.00
Encoded date                     : UTC 2011-01-11 13:18:16
Tagged date                      : UTC 2011-01-11 13:19:21
Audio
ID                               : 2
Format                           : AAC
Format/Info                      : Advanced Audio Codec
Format profile                   : LC
Codec ID                         : 40
Duration                         : 1h 32mn
Bit rate mode                    : Variable
Bit rate                         : 128 Kbps
Maximum bit rate                 : 150 Kbps
Channel(s)                       : 2 channels
Channel positions                : Front: L R
Sampling rate                    : 48.0 KHz
Compression mode                 : Lossy
Stream size                      : 84.4 MiB (29%)
Encoded date                     : UTC 2011-01-11 13:19:14
Tagged date                      : UTC 2011-01-11 13:19:21
[Профиль]  [ЛС] 

larsi2007

Стаж: 8 лет 4 месяца

Сообщений: 13


larsi2007 · 16-Янв-11 16:30 (спустя 5 часов)

[Цитировать] 

Когда же можно будет скачать? Так хочется! :)))
[Профиль]  [ЛС] 

CChuba

Стаж: 10 лет 2 месяца

Сообщений: 17

CChuba · 16-Янв-11 17:37 (спустя 1 час 6 мин.)

[Цитировать] 

и так все остальное уже остановила, только раздаю :). 4 личера пока качают....
[Профиль]  [ЛС] 

larsi2007

Стаж: 8 лет 4 месяца

Сообщений: 13


larsi2007 · 17-Янв-11 18:00 (спустя 1 день)

[Цитировать] 

CChuba писал(а):
и так все остальное уже остановила, только раздаю :). 4 личера пока качают....
:)) Вы меня не поняли, не было возможности скачать, был на проверке, а сейчас скачиваю!
Спасибо за раздачу!!!
[Профиль]  [ЛС] 

CChuba

Стаж: 10 лет 2 месяца

Сообщений: 17

CChuba · 17-Янв-11 22:39 (спустя 4 часа)

[Цитировать] 

Дошло :). Не знала, что во время проверки торент-файл недоступен...
[Профиль]  [ЛС] 

Abrakad

Стаж: 10 лет 4 месяца

Сообщений: 58

Abrakad · 26-Окт-11 18:06 (спустя 9 месяцев)

[Цитировать] 

чё т не полностью пошел (( не воспроизводится (( на самом интересном ((
[Профиль]  [ЛС] 
 
Ответить
Loading...
Error