Video - Le Coffret Bien-Etre Nature [2009, Visual Meditation, Relax, (by music Natobi & Wa Kan), DVDRip]

Страницы:  1

Ответить
Автор
Сообщение

Master-daO

Top Seed 03* 160r

Стаж: 10 лет 4 месяца

Сообщений: 1405

Master-daO · 02-Янв-12 19:14 (7 лет 5 месяцев назад, ред. 02-Янв-12 22:10)

Video - Le Coffret Bien-Etre Nature Страна: France
Жанр: Visual Meditation, Relax
Продолжительность: 40:00
Год выпуска: 2009 г.
Описание:
Источник: собственный рип
Cсылка - DVD
Качество: DVDRip
Контейнер: AVI
Видео кодек: XviD
Аудио кодек: MP3
Видео: MPEG-4, 720x400, 16:9, 25.000 fps
Аудио: 2.0 Channels, 48.0 KHz, 320 Kbps

01 ... Sources ... 7:51
02 ... Horizong ... 7:44
03 ... Vagues ... 7:54
04 ... Nature Zen ... 8:19
~ Доп. информация: > Soundtrack < DVD | 3.CD Box.Set - Из этого комплекта.
Пред. просмотр
DVDInfo
01. Sources
General
Complete name : F:\_b.Obrabotka\[2.- DVDRip\Bien-Etre Nature\Bien-Etre Nature_01 - Horizons.avi
Format : AVI
Format/Info : Audio Video Interleave
File size : 143 MiB
Duration : 7mn 51s
Overall bit rate : 2 547 Kbps
Writing application : VirtualDubMod 1.5.10.3 | www.virtualdub-fr.org || (build 2550/release)
Writing library : VirtualDubMod build 2550/release
Video
ID : 0
Format : MPEG-4 Visual
Format profile : Advanced [email protected]
Format settings, BVOP : Yes
Format settings, QPel : No
Format settings, GMC : No warppoints
Format settings, Matrix : Custom
Codec ID : XVID
Codec ID/Hint : XviD
Duration : 7mn 51s
Bit rate : 2 217 Kbps
Width : 720 pixels
Height : 400 pixels
Display aspect ratio : 16:9
Frame rate : 25.000 fps
Color space : YUV
Chroma subsampling : 4:2:0
Bit depth : 8 bits
Scan type : Progressive
Compression mode : Lossy
Bits/(Pixel*Frame) : 0.308
Stream size : 125 MiB (87%)
Writing library : XviD 1.2.1 (UTC 2008-12-04)
Audio
ID : 1
Format : MPEG Audio
Format version : Version 1
Format profile : Layer 3
Codec ID : 55
Codec ID/Hint : MP3
Duration : 7mn 51s
Bit rate mode : Constant
Bit rate : 320 Kbps
Channel(s) : 2 channels
Sampling rate : 48.0 KHz
Compression mode : Lossy
Stream size : 18.0 MiB (13%)
Alignment : Aligned on interleaves
Interleave, duration : 40 ms (1.00 video frame)
Interleave, preload duration : 504 ms
Writing library : LAME3.99.1
02. Horizong
General
Complete name : F:\_b.Obrabotka\[2.- DVDRip\Bien-Etre Nature\Bien-Etre Nature_02 - Vagues.avi
Format : AVI
Format/Info : Audio Video Interleave
File size : 141 MiB
Duration : 7mn 44s
Overall bit rate : 2 548 Kbps
Writing application : VirtualDubMod 1.5.10.3 | www.virtualdub-fr.org || (build 2550/release)
Writing library : VirtualDubMod build 2550/release
Video
ID : 0
Format : MPEG-4 Visual
Format profile : Advanced [email protected]
Format settings, BVOP : Yes
Format settings, QPel : No
Format settings, GMC : No warppoints
Format settings, Matrix : Custom
Codec ID : XVID
Codec ID/Hint : XviD
Duration : 7mn 44s
Bit rate : 2 219 Kbps
Width : 720 pixels
Height : 400 pixels
Display aspect ratio : 16:9
Frame rate : 25.000 fps
Color space : YUV
Chroma subsampling : 4:2:0
Bit depth : 8 bits
Scan type : Progressive
Compression mode : Lossy
Bits/(Pixel*Frame) : 0.308
Stream size : 123 MiB (87%)
Writing library : XviD 1.2.1 (UTC 2008-12-04)
Audio
ID : 1
Format : MPEG Audio
Format version : Version 1
Format profile : Layer 3
Codec ID : 55
Codec ID/Hint : MP3
Duration : 7mn 44s
Bit rate mode : Constant
Bit rate : 320 Kbps
Channel(s) : 2 channels
Sampling rate : 48.0 KHz
Compression mode : Lossy
Stream size : 17.7 MiB (13%)
Alignment : Aligned on interleaves
Interleave, duration : 40 ms (1.00 video frame)
Interleave, preload duration : 504 ms
Writing library : LAME3.99.1
03. Vagues
General
Complete name : F:\_b.Obrabotka\[2.- DVDRip\Bien-Etre Nature\Bien-Etre Nature_03 - Sources.avi
Format : AVI
Format/Info : Audio Video Interleave
File size : 144 MiB
Duration : 7mn 54s
Overall bit rate : 2 547 Kbps
Writing application : VirtualDubMod 1.5.10.3 | www.virtualdub-fr.org || (build 2550/release)
Writing library : VirtualDubMod build 2550/release
Video
ID : 0
Format : MPEG-4 Visual
Format profile : Advanced [email protected]
Format settings, BVOP : Yes
Format settings, QPel : No
Format settings, GMC : No warppoints
Format settings, Matrix : Custom
Codec ID : XVID
Codec ID/Hint : XviD
Duration : 7mn 54s
Bit rate : 2 218 Kbps
Width : 720 pixels
Height : 400 pixels
Display aspect ratio : 16:9
Frame rate : 25.000 fps
Color space : YUV
Chroma subsampling : 4:2:0
Bit depth : 8 bits
Scan type : Progressive
Compression mode : Lossy
Bits/(Pixel*Frame) : 0.308
Stream size : 125 MiB (87%)
Writing library : XviD 1.2.1 (UTC 2008-12-04)
Audio
ID : 1
Format : MPEG Audio
Format version : Version 1
Format profile : Layer 3
Codec ID : 55
Codec ID/Hint : MP3
Duration : 7mn 54s
Bit rate mode : Constant
Bit rate : 320 Kbps
Channel(s) : 2 channels
Sampling rate : 48.0 KHz
Compression mode : Lossy
Stream size : 18.1 MiB (13%)
Alignment : Aligned on interleaves
Interleave, duration : 40 ms (1.00 video frame)
Interleave, preload duration : 504 ms
Writing library : LAME3.99.1ЄЄЄЄЄЄЄЄЄ§
04. Nature Zen
General
Complete name : F:\_b.Obrabotka\[2.- DVDRip\Bien-Etre Nature\Bien-Etre Nature_04 - Nature Zen.avi
Format : AVI
Format/Info : Audio Video Interleave
File size : 151 MiB
Duration : 8mn 19s
Overall bit rate : 2 537 Kbps
Writing application : VirtualDubMod 1.5.10.3 | www.virtualdub-fr.org || (build 2550/release)
Writing library : VirtualDubMod build 2550/release
Video
ID : 0
Format : MPEG-4 Visual
Format profile : Advanced [email protected]
Format settings, BVOP : Yes
Format settings, QPel : No
Format settings, GMC : No warppoints
Format settings, Matrix : Custom
Codec ID : XVID
Codec ID/Hint : XviD
Duration : 8mn 19s
Bit rate : 2 207 Kbps
Width : 720 pixels
Height : 400 pixels
Display aspect ratio : 16:9
Frame rate : 25.000 fps
Color space : YUV
Chroma subsampling : 4:2:0
Bit depth : 8 bits
Scan type : Progressive
Compression mode : Lossy
Bits/(Pixel*Frame) : 0.307
Stream size : 131 MiB (87%)
Writing library : XviD 1.2.1 (UTC 2008-12-04)
Audio
ID : 1
Format : MPEG Audio
Format version : Version 1
Format profile : Layer 3
Codec ID : 55
Codec ID/Hint : MP3
Duration : 8mn 19s
Bit rate mode : Constant
Bit rate : 320 Kbps
Channel(s) : 2 channels
Sampling rate : 48.0 KHz
Compression mode : Lossy
Stream size : 19.1 MiB (13%)
Alignment : Aligned on interleaves
Interleave, duration : 40 ms (1.00 video frame)
Interleave, preload duration : 504 ms
Writing library : LAME3.99.1

Видео: Аудио:
01. Sources
Видео: MPEG-4, 720x400, 16:9, 2 217 Kbps
Аудио: 2.0 Channels, 48.0 KHz, 320 Kbps
02. Horizong
Видео: MPEG-4, 720x400, 16:9, 2 219 Kbps
Аудио: 2.0 Channels, 48.0 KHz, 320 Kbps
03. Vagues
Видео: MPEG-4, 720x400, 16:9, 2 218 Kbps
Аудио: 2.0 Channels, 48.0 KHz, 320 Kbps
04. Nature Zen
Видео: MPEG-4, 720x400, 16:9, 2 207 Kbps
Аудио: 2.0 Channels, 48.0 KHz, 320 Kbps

<:> _ Lossless _ <:>

<o> _ VA - Le Coffret Du Bien-Etre _ <o>
~ Смотреть мои - DVD ~ (скачать) ~
~ DVD - BUDDHA'S BANQUET - Music Lounge (скачать) ~
~ DVD - Dan Gibson's - Solitudes 25 - (Collection 25e Anniversaire) - Natural Beauty (скачать) ~
~ DVD - Непал, Тибет - музыкальное путишествие - Nepal, Tibet (скачать) ~
~ DVD - Peter Buffett - Spirit The Seventh Fire (скачать) ~
~ DVD - Planet Earth - Magic Relax Music (скачать) ~
~ DVD - Planet Earth in Lounge Music - Vol.1 E-xception (скачать) ~
~ DVD - Planet Earth in Lounge Music - Vol.2 E-motion (скачать) ~
~ DVD - Planet Earth in Lounge Music - Vol.3 E-nigmatic (скачать) ~
~ DVD - Planet Earth in Lounge Music - Vol.4 @dmiration (скачать) ~
~ DVD - Planet Earth in Lounge Music - Vol.5 Contemplation (скачать) ~
~ DVD - Planet Earth in Lounge Music - Vol.6 E-lectro (скачать) ~
~ DVD - Planet Earth in Lounge Music - Vol.7 E-xtreme (скачать) ~
~ DVD - Planet Earth in Lounge Music - Vol.8 @nimal (скачать) ~
~ DVD - Planet Earth in Lounge Music - Vol.9 Coloration (скачать) ~
~ DVD - Planet Earth in Lounge Music - Vol.10 Pulse (скачать) ~
~ DVD - Relax Romantic Spa Vol.2 - Sensual Delights (скачать) ~
~ DVD - Relax Romantic Spa Vol.3 - Reiki (скачать) ~
~ DVD - Relax Romantic Spa Vol.4 - Feng Shui (скачать) ~
~ DVD - Relax Romantic Spa Vol.5 - Spa Relaxation (скачать) ~
~ DVD - Relax Romantic Spa Vol.6 - Evening Bliss (скачать) ~
~ DVD - Relax Video - Великие водопады - New Age Music (скачать) ~
~ DVD - Seychelles Islands (скачать) ~
Download
Для скачивания .torrent файлов необходима регистрация
Сайт не распространяет и не хранит электронные версии произведений, а лишь предоставляет доступ к создаваемому пользователями каталогу ссылок на торрент-файлы, которые содержат только списки хеш-сумм
[Профиль]  [ЛС] 

Master-daO

Top Seed 03* 160r

Стаж: 10 лет 4 месяца

Сообщений: 1405

Master-daO · 02-Янв-12 19:17 (спустя 2 мин.)

ОЧЕНЬ рекомендую:
Relaxing Dreams - Discography - 25 albums
Nicolas Dri - Aqua Vitalite - 3.CD
_*_ G.E.N.E. - The Best Part I & II
Dan Gibson's - Discography - 219 albums

Guy Sweens - Discography - 3 albums


[Профиль]  [ЛС] 
 
Ответить
Loading...
Error