Jonn Serrie - Star Chronicles I, Journeys In Imagination [2002, New Age, Ambient (Фильм-медитация визуальной музыки), DVDRip]

Страницы:  1

Ответить
Автор
Сообщение

Dreary_Alien

Стаж: 10 лет 7 месяцев

Сообщений: 572

Dreary_Alien · 11-Авг-11 10:36 (7 лет 10 месяцев назад, ред. 17-Авг-11 08:41)

Jonn Serrie - Star Chronicles I, Journeys In Imagination
(Звёздные хроники. Путешествия в воображении)
Страна: USA
Жанр: New Age, Ambient (Фильм-медитация визуальной музыки)
Продолжительность: 00:32:06
Год выпуска: 2002 г.
Треклист: Отсутствует. Буду признателен за помощь.
Описание: Свободное парение через пространство в этом вневременном путешествии, чтобы перейти в глубокое состояние релаксации сознания. Целиком расслабляющее звучание волн, морских пейзажей, пёстрого заката солнца на фоне глубоких вод, осознанные сновидения, подвижность, изменённые состояния сознания. И всё это на фоне космической музыки Jonn Serrie
Источник: скачано из сети
Качество: DVDRip
Контейнер: AVI
Видео кодек: XviD
Аудио кодек: MP3
Видео: XviD; 720x480; 16:9; 2081 kbps; 29,970 fps
Аудио: MP3; 56 kbps; 22,05 kHz; 2 ch
МедиаИнфо
Общее
Формат : AVI
Формат/Информация : Audio Video Interleave
Размер файла : 491 Мбайт
Продолжительность : 32 м.
Общий поток : 2139 Кбит/сек
Видео
Идентификатор : 0
Формат : MPEG-4 Visual
Профиль формата : Advanced [email protected]
Параметр BVOP формата : 2
Параметр QPel формата : Нет
Параметр GMC формата : Без точки перехода
Параметр матрицы формата : Default (H.263)
Режим смешивания : Сжатый битовый поток
Идентификатор кодека : XVID
Идентификатор кодека/Подсказка : XviD
Продолжительность : 31 м.
Битрейт : 2081 Кбит/сек
Ширина : 720 пикс.
Высота : 480 пикс.
Соотношение сторон : 16:9
Частота кадров : 29,970 кадр/сек
Стандарт вещания : NTSC
Цветовое пространство : YUV
Подвыборка цветности : 4:2:0
Битовая глубина : 8 бит
Тип развёртки : Прогрессивная
Метод сжатия : С потерями
Бит/(Пиксели*Кадры) : 0.201
Размер потока : 476 Мбайт (97%)
Библиотека кодирования : XviD 1.2.1 (UTC 2008-12-04)
Аудио
Идентификатор : 1
Формат : MPEG Audio
Версия формата : Version 2
Профиль формата : Layer 3
Режим : Joint stereo
Расширение режима : Intensity Stereo + MS Stereo
Идентификатор кодека : 55
Идентификатор кодека/Подсказка : MP3
Продолжительность : 32 м.
Вид битрейта : Постоянный
Битрейт : 56,0 Кбит/сек
Каналы : 2 канала
Частота : 22,05 КГц
Метод сжатия : С потерями
Размер потока : 12,8 Мбайт (3%)
Выравнивание : Разделение по промежуткам
Продолжительность промежутка : 33 мс. (1,00 видеокадр)
Скриншоты
Download
Для скачивания .torrent файлов необходима регистрация
Сайт не распространяет и не хранит электронные версии произведений, а лишь предоставляет доступ к создаваемому пользователями каталогу ссылок на торрент-файлы, которые содержат только списки хеш-сумм
[Профиль]  [ЛС] 

Micro Q

Помощник модератора

Стаж: 10 лет 1 месяц

Сообщений: 5230

Micro Q · 11-Авг-11 19:53 (спустя 9 часов)

О... буквально недавно мне о нём говорили... спасибо большое.
[Профиль]  [ЛС] 

Dreary_Alien

Стаж: 10 лет 7 месяцев

Сообщений: 572

Dreary_Alien · 12-Авг-11 08:28 (спустя 12 часов)

Jonn Serrie - "Star Chronicles II, Lumia Nights" (DVDRip)
[Профиль]  [ЛС] 

Synt1977

Стаж: 8 лет 11 месяцев

Сообщений: 16


Synt1977 · 12-Ноя-11 02:12 (спустя 2 месяца 30 дней, ред. 12-Ноя-11 02:12)

Есть ли возможность выложить этот материал в DVD качестве?
[Профиль]  [ЛС] 

gerasim-64

Стаж: 6 лет 10 месяцев

Сообщений: 25


gerasim-64 · 28-Июл-12 16:15 (спустя 8 месяцев)

Супер! Именно так я и представлял музыку Serri, особенно первые кадры- медленно колышущийся океан. Спасибо автору раздачи!!!!
[Профиль]  [ЛС] 

space_scientist

Стаж: 9 лет 3 месяца

Сообщений: 267


space_scientist · 05-Окт-12 23:35 (спустя 2 месяца 8 дней, ред. 05-Окт-12 23:35)

gerasim-64 писал(а):
54402176Супер! Именно так я и представлял музыку Serri, особенно первые кадры- медленно колышущийся океан. Спасибо автору раздачи!!!!
Вообще-то в большинстве музыки у него она космическая. Поэтому лучше смотреть на фотографии космоса и представлять другие миры. P.S. Не космического фотошопа, а реальных фотографий
[Профиль]  [ЛС] 
 
Ответить
Loading...
Error