[Мотоспорт] Moto Evil Day 3Д (31.07.2011, Стантрайдинг, HDTV) SideBySide / Горизонтальная анаморфная стереопара

Страницы:  1

Ответить
Автор
Сообщение

Nikolay_-_-

Стаж: 9 лет 7 месяцев

Сообщений: 2789

Nikolay_-_- · 16-Апр-12 13:07 (6 лет 5 месяцев назад)

Moto Evil Day 3Д
Дата: 31.07.2011
Страна: Россия
Жанр: Стантрайдинг
Продолжительность: 01:14:08
Перевод: Не требуется
Ведущая: Русская красавица
Русские субтитры: Нет
В главных ролях: Пилоты и их мотоциклы
Автор рипа: Nikolay_-_-
Канал:
Описание: Соревнования по российскому стантрайдингу, которые прошли в городе на Неве.
Формат 3D: SideBySide / Горизонтальная анаморфная стереопара
Качество: HDTV
Формат: TS
Видео: H.264; 1920x1080 (16:9); 25.000 fps; 9104 kbps
Аудио: AC-3; 48000 Hz; 448 kbps; 2 channels
MediaInfo
Общее
Идентификатор : 14 (0xE)
Полное имя : F:\Закачки\Moto Evil Day-2011-Nikolay_-_-.ts
Формат : MPEG-TS
Размер файла : 5,21 Гбайт
Продолжительность : 1 ч. 14 м.
Общий поток : 10,1 Мбит/сек
Видео
Идентификатор : 322 (0x142)
Идентификатор меню : 14102 (0x3716)
Формат : AVC
Формат/Информация : Advanced Video Codec
Профиль формата : [email protected]
Параметр CABAC формата : Да
Параметр ReFrames формата : 3 кадра
Параметр GOP формата : M=4, N=32
Идентификатор кодека : 27
Продолжительность : 1 ч. 14 м.
Битрейт : 9104 Кбит/сек
Ширина : 1920 пикселей
Высота : 1080 пикселей
Соотношение сторон : 16:9
Частота кадров : 25,000 кадров/сек
Стандарт вещания : Component
Цветовое пространство : YUV
Субдискретизация насыщенности : 4:2:0
Битовая глубина : 8 бит
Тип развёртки : Чересстрочная
Порядок развёртки : Верхнее поле первое
Бит/(Пиксели*Кадры) : 0.176
Размер потока : 4,71 Гбайт (91%)
Основные цвета : BT.709-5, BT.1361, IEC 61966-2-4, SMPTE RP177
Характеристики трансфера : BT.709-5, BT.1361
Коэффициенты матрицы : BT.709-5, BT.1361, IEC 61966-2-4 709, SMPTE RP177
Аудио
Идентификатор : 402 (0x192)
Идентификатор меню : 14102 (0x3716)
Формат : AC-3
Формат/Информация : Audio Coding 3
Расширение режима : CM (complete main)
Параметр Endianness формата : Big
Идентификатор кодека : 6
Продолжительность : 1 ч. 14 м.
Вид битрейта : Постоянный
Битрейт : 448 Кбит/сек
Каналы : 2 канала
Расположение каналов : Front: L R
Частота : 48,0 КГц
Битовая глубина : 16 бит
Метод сжатия : С потерями
Задержка видео : -693 мс.
Размер потока : 238 Мбайт (4%)
Язык : Russian
Язык, дополнительно : Clean effects
Меню
Идентификатор : 1402 (0x57A)
Идентификатор меню : 14102 (0x3716)
Продолжительность : 1 ч. 14 м.
Список : 322 (0x142) (AVC) / 402 (0x192) (AC-3, Russian)
Язык : / Russian
Скриншоты

Download
Для скачивания .torrent файлов необходима регистрация
Сайт не распространяет и не хранит электронные версии произведений, а лишь предоставляет доступ к создаваемому пользователями каталогу ссылок на торрент-файлы, которые содержат только списки хеш-сумм
[Профиль]  [ЛС] 

Bu-l-ek

Стаж: 9 лет 3 месяца

Сообщений: 22


Bu-l-ek · 17-Апр-12 10:25 (спустя 21 час)

[Цитировать] 

То, что надо! Пока 3д-очки с Японии идут пожалуй надо скачать
[Профиль]  [ЛС] 

kalinin_makc

Стаж: 7 лет 4 месяца

Сообщений: 2


kalinin_makc · 09-Янв-13 18:46 (спустя 8 месяцев)

[Цитировать] 

ведущая конечно милаха, но ее вечное "моцотыклист" напрягает =)
[Профиль]  [ЛС] 
 
Ответить
Loading...
Error