[Автоспорт] Кубок белых ночей 3Д (19.06.2011, Дрифт, HDTV) SideBySide / Горизонтальная анаморфная стереопара

Страницы:  1

Ответить
Автор
Сообщение

Nikolay_-_-

Стаж: 9 лет 4 месяца

Сообщений: 2784

Nikolay_-_- · 08-Апр-12 12:17 (6 лет 2 месяца назад, ред. 12-Апр-12 15:26)

Кубок белых ночей 3Д
Дата: 19.06.2011
Страна: Россия
Жанр: Дрифт
Продолжительность: 59:47
Перевод: Не требуется
Ведущая: Русская красавица
Русские субтитры: Нет
В главных ролях: Пилоты и их автомобили
Автор рипа: Nikolay_-_-
Канал:
Описание: Соревнования по российскому дрифту, которые прошли в городе на Неве.
Формат 3D: SideBySide / Горизонтальная анаморфная стереопара
Качество: HDTV
Формат: TS
Видео: H.264; 1920x1080 (16:9); 25.000 fps; 6970 kbps
Аудио: AC-3; 48000 Hz; 448 kbps; 2 channels
MediaInfo
Общее
Идентификатор : 14 (0xE)
Полное имя : F:\Закачки\Кубок белых ночей 2011-Nikolay_-_-.ts
Формат : MPEG-TS
Размер файла : 3,26 Гбайт
Продолжительность : 59 м.
Общий поток : 7809 Кбит/сек
Видео
Идентификатор : 322 (0x142)
Идентификатор меню : 14102 (0x3716)
Формат : AVC
Формат/Информация : Advanced Video Codec
Профиль формата : [email protected]
Параметр CABAC формата : Да
Параметр ReFrames формата : 3 кадра
Идентификатор кодека : 27
Продолжительность : 59 м.
Битрейт : 6970 Кбит/сек
Ширина : 1920 пикселей
Высота : 1080 пикселей
Соотношение сторон : 16:9
Частота кадров : 25,000 кадров/сек
Стандарт вещания : Component
Цветовое пространство : YUV
Субдискретизация насыщенности : 4:2:0
Битовая глубина : 8 бит
Тип развёртки : Чересстрочная
Порядок развёртки : Верхнее поле первое
Бит/(Пиксели*Кадры) : 0.134
Размер потока : 2,91 Гбайт (89%)
Основные цвета : BT.709-5, BT.1361, IEC 61966-2-4, SMPTE RP177
Характеристики трансфера : BT.709-5, BT.1361
Коэффициенты матрицы : BT.709-5, BT.1361, IEC 61966-2-4 709, SMPTE RP177
Аудио
Идентификатор : 402 (0x192)
Идентификатор меню : 14102 (0x3716)
Формат : AC-3
Формат/Информация : Audio Coding 3
Расширение режима : CM (complete main)
Параметр Endianness формата : Big
Идентификатор кодека : 6
Продолжительность : 59 м.
Вид битрейта : Постоянный
Битрейт : 448 Кбит/сек
Каналы : 2 канала
Расположение каналов : Front: L R
Частота : 48,0 КГц
Битовая глубина : 16 бит
Метод сжатия : С потерями
Задержка видео : -888 мс.
Размер потока : 192 Мбайт (6%)
Язык : Russian
Язык, дополнительно : Clean effects
Меню
Идентификатор : 1402 (0x57A)
Идентификатор меню : 14102 (0x3716)
Продолжительность : 59 м.
Список : 322 (0x142) (AVC) / 402 (0x192) (AC-3, Russian)
Язык : / Russian
Скриншоты

Download
Для скачивания .torrent файлов необходима регистрация
Сайт не распространяет и не хранит электронные версии произведений, а лишь предоставляет доступ к создаваемому пользователями каталогу ссылок на торрент-файлы, которые содержат только списки хеш-сумм
[Профиль]  [ЛС] 

bender70

Стаж: 8 лет 8 месяцев

Сообщений: 34

bender70 · 13-Апр-12 22:26 (спустя 5 дней)

[Цитировать] 

Спасибо очень понравилось все и качество и сама тема
[Профиль]  [ЛС] 

NEMYALIRIKA

Стаж: 6 лет 10 месяцев

Сообщений: 1


NEMYALIRIKA · 14-Апр-12 23:51 (спустя 1 день 1 час)

[Цитировать] 

очень плохо Двойное видео
[Профиль]  [ЛС] 

ahym

Стаж: 9 лет

Сообщений: 19


ahym · 15-Авг-12 21:28 (спустя 4 месяца)

[Цитировать] 

ахахаха "двойное видео" Это ж 3Д епть.
[Профиль]  [ЛС] 

KeKcoB

Стаж: 8 лет 3 месяца

Сообщений: 21

KeKcoB · 30-Авг-12 15:52 (спустя 14 дней)

[Цитировать] 

NEMYALIRIKA писал(а):
52538196очень плохо Двойное видео
[Профиль]  [ЛС] 

oleg66rus

Стаж: 5 лет 7 месяцев

Сообщений: 1


oleg66rus · 18-Янв-13 09:06 (спустя 4 месяца 18 дней)

[Цитировать] 

NEMYALIRIKA писал(а):
52538196очень плохо Двойное видео
[Профиль]  [ЛС] 

Biyo

Стаж: 8 лет 2 месяца

Сообщений: 769

Biyo · 01-Фев-13 17:09 (спустя 14 дней)

[Цитировать] 

Вы чё Парни,забирал эту раздачу где-то пол года назад.На Лыжах и Самсунягах всё Великолепно!!!
Nikolay_-_- Благодарю!!!
[Профиль]  [ЛС] 
 
Ответить
Loading...
Error