Гренада. Драматическая легенда о Михаиле Светлове (М. Маркова, Пётр Штейн) [1982, драма, фильм-спектакль, DVB] Театр им. Ленинского комсомола

Страницы:  1

Ответить
Автор
Сообщение

ralf124c41+

Top Best

Стаж: 8 лет 6 месяцев

Сообщений: 11244

ralf124c41+ · 16-Дек-13 20:49 (4 года 7 месяцев назад, ред. 16-Дек-13 21:22)

Гренада
Драматическая легенда о Михаиле Светлове
Название театра: Театр им. Ленинского комсомола
Жанр: драма, фильм-спектакль
Год выпуска: 1982
Продолжительность: 01:45:01
Режиссёр фильма: М. Маркова
Постановка: Пётр Штейн
Композитор: Геннадий Гладков
В ролях: Поэт - Владимир Корецкий
Его гривенники:
Романтик - Сократ Абдукадыров
Строгий - Михаил Поляк
Грустный - Юрий Зайцев
Весёлый - Александр Абдулов
Усталый - Николай Шушарин
Талантливый - Юрий Астафьев
Мужественный - Владимир Кузнецов
Боязливый - Владимир Белоусов
Неистраченный - Юрий Мороз
Чужой - А. Семенюк
Женщины на его пути:
Первая любовь, Ведущая, Знакомая, Корреспондентка, Жена, Военврач, Последняя любовь - Татьяна Догилева
Мушкетёры - артисты театраОписание: Уникальный спектакль из архивов ГТРФ в исполнении актеров опального в тот момент театра им. Ленинского комсомола. Главная редакция литературно-драматических программ ЦТ представляет драматическую легенду о поэте Михаиле Светлове по сценической композиции А.Ремеза и П.Штейна. В спектакле звучит знаменитая песня "Гренада" композитора М. Берковского на стихи М. Светлова. (анонс канала "Время")
Доп. информация: Запись со спутника (телеканал "Время: далекое и близкое").
Семпл: http://multi-up.com/933024
Качество видео: DVB
Формат видео: MPEG-PS (См. при проблемах с просмотром видео)
Видео: MPEG Video 2, [email protected] (4:3), 25 fps, ~2743 kbps avg, 0.265 bit/pixel
Аудио: 48 kHz, MPEG Audio 2, 2 ch, ~192.00 kbps avg
MediaInfo
Полное имя                               : H:\My Torrents\[apreder]Grenada(1982)DVB.mpg
Формат : MPEG-PS
Размер файла : 2,20 Гбайт
Продолжительность : 1 ч. 45 м.
Режим общего битрейта : Переменный
Общий поток : 2994 Кбит/сек
Видео
Идентификатор : 224 (0xE0)
Формат : MPEG Video
Версия формата : Version 2
Профиль формата : [email protected]
Параметр BVOP формата : Да
Параметр матрицы формата : Выборочная
Параметр GOP формата : M=3, N=12
Продолжительность : 1 ч. 45 м.
Вид битрейта : Переменный
Битрейт : 2743 Кбит/сек
Ширина : 720 пикселей
Высота : 576 пикселей
Соотношение сторон : 4:3
Частота кадров : 25,000 кадров/сек
Стандарт вещания : PAL
Цветовое пространство : YUV
Субдискретизация насыщенности : 4:2:0
Битовая глубина : 8 бит
Тип развёртки : Чересстрочная
Порядок развёртки : Верхнее поле первое
Метод сжатия : С потерями
Бит/(Пиксели*Кадры) : 0.265
Временной код первого кадра : 00:00:00:00
Оригинал временного кода : Group of pictures header
Размер потока : 2,01 Гбайт (92%)
Аудио
Идентификатор : 192 (0xC0)
Формат : MPEG Audio
Версия формата : Version 1
Профиль формата : Layer 2
Продолжительность : 1 ч. 45 м.
Вид битрейта : Постоянный
Битрейт : 192 Кбит/сек
Каналы : 2 канала
Частота : 48,0 КГц
Метод сжатия : С потерями
Размер потока : 144 Мбайт (6%)
Скриншот с названием постановки
Скриншоты

Резервные скриншоты

1'105/1'087√
Download
Для скачивания .torrent файлов необходима регистрация
Сайт не распространяет и не хранит электронные версии произведений, а лишь предоставляет доступ к создаваемому пользователями каталогу ссылок на торрент-файлы, которые содержат только списки хеш-сумм
[Профиль]  [ЛС] 

faust63

Стаж: 5 лет 8 месяцев

Сообщений: 124


faust63 · 17-Дек-13 10:22 (спустя 13 часов)

[Цитировать] 

УХ-ТЫ! А СЛУЧАЙНО НЕТ ЛЕНКОМОВСКОЙ ЗВЕЗДЫ И СМЕРТИ ХОАКИНА МУРЬЕТЫ БЫЛО БЫ ЗДОРОВО ЗАРАНЕЕ СПАСИБО ТАКЖЕ ИНТЕРЕСНЫ ДРУГИЕ ЗАПИСИ ЛЕНКОМ
[Профиль]  [ЛС] 

ralf124c41+

Top Best

Стаж: 8 лет 6 месяцев

Сообщений: 11244

ralf124c41+ · 17-Дек-13 15:50 (спустя 5 часов)

[Цитировать] 

faust63 писал(а):
62151462УХ-ТЫ! А СЛУЧАЙНО НЕТ ЛЕНКОМОВСКОЙ ЗВЕЗДЫ И СМЕРТИ ХОАКИНА МУРЬЕТЫ БЫЛО БЫ ЗДОРОВО ЗАРАНЕЕ СПАСИБО ТАКЖЕ ИНТЕРЕСНЫ ДРУГИЕ ЗАПИСИ ЛЕНКОМ
Других записей Ленкома нет. Если будет показ, запишу.
[Профиль]  [ЛС] 

sbnnbs25

Стаж: 10 лет 3 месяца

Сообщений: 6


sbnnbs25 · 22-Дек-13 18:48 (спустя 5 дней, ред. 23-Дек-13 19:01)

[Цитировать] 

Большое спасибо. Отличный спектакль. Когда смотрел его "вживую", то театр тогда вообще-то не любил и этот спектакль был для меня откровением (наряду с гениальным "Глазами клоуна").
Очень давно пытался его найти, но только сейчас повезло.
Небольшое замечание. Берковский - не "М", а "В" (Виктор)
[Профиль]  [ЛС] 
 
Ответить
Loading...
Error