Тернистый путь к исцелению (Андрей Полушин) [2005, торжество Православия, DVDRip]

Страницы:  1

Ответить
Автор
Сообщение

royalstag

Top Seed 06* 1280r

Стаж: 8 лет 4 месяца

Сообщений: 1691

royalstag · 08-Окт-14 23:40 (3 года 11 месяцев назад)

Тернистый путь к исцелению
Дата/Год выпуска: 2005
Страна: Россия
Жанр: торжество Православия
Продолжительность: 00:48:10
Перевод: Не требуется
Русские субтитры: нет
Оригинальная аудиодорожка: русский
Режиссер: Андрей Полушин
Описание: Более 3,5 тысяч человек умирает каждый год в России от передозировки наркотиков. От причин, так или иначе связанных с алкоголизмом, около миллиона... Алкоголизм и наркомания - бич России, источник горя и слёз, поломанных судеб и разбитых семей. Не у каждого хватает сил справиться с этой болезнью в одиночку. Необходимо покаяние, помощь ближних и Церкви. И люди, ищущие спасения, идут в храмы, едут в монастыри.
качество: DVDRip
формат: AVI
Видео: MPEG4, XviD, 688x528 (4:3), 25.000 fps, 1 833 Kbps (0.202 bit/pixel)
Аудио: AC-3, 48.0 KHz, 2 ch, 192 Kbps, CBR
MediaInfo
General
Complete name : G:\документалка\Тернистый путь к исцелению.avi
Format : AVI
Format/Info : Audio Video Interleave
File size : 701 MiB
Duration : 48mn 10s
Overall bit rate : 2 034 Kbps
Writing application : VirtualDubMod 1.5.10.3 | www.virtualdub-fr.org || (build 2550/release)
Writing library : VirtualDubMod build 2550/release
Video
ID : 0
Format : MPEG-4 Visual
Format profile : Advanced [email protected]
Format settings, BVOP : 2
Format settings, QPel : Yes
Format settings, GMC : No warppoints
Format settings, Matrix : Default (H.263)
Codec ID : XVID
Codec ID/Hint : XviD
Duration : 48mn 10s
Bit rate : 1 833 Kbps
Width : 688 pixels
Height : 528 pixels
Display aspect ratio : 4:3
Frame rate : 25.000 fps
Color space : YUV
Chroma subsampling : 4:2:0
Bit depth : 8 bits
Scan type : Progressive
Compression mode : Lossy
Bits/(Pixel*Frame) : 0.202
Stream size : 631 MiB (90%)
Writing library : XviD 73
Audio
ID : 1
Format : AC-3
Format/Info : Audio Coding 3
Mode extension : CM (complete main)
Format settings, Endianness : Big
Codec ID : 2000
Duration : 48mn 10s
Bit rate mode : Constant
Bit rate : 192 Kbps
Channel(s) : 2 channels
Channel positions : Front: L R
Sampling rate : 48.0 KHz
Bit depth : 16 bits
Compression mode : Lossy
Stream size : 66.2 MiB (9%)
Alignment : Split accross interleaves
Interleave, duration : 40 ms (1.00 video frame)
Interleave, preload duration : 500 ms
Скриншоты
Download
Для скачивания .torrent файлов необходима регистрация
Сайт не распространяет и не хранит электронные версии произведений, а лишь предоставляет доступ к создаваемому пользователями каталогу ссылок на торрент-файлы, которые содержат только списки хеш-сумм
[Профиль]  [ЛС] 

Zhyvana

Moderator gray

Стаж: 7 лет 10 месяцев

Сообщений: 2414

Zhyvana · 10-Окт-14 21:34 (спустя 1 день 21 час)

[Цитировать] 

royalstag
royalstag писал(а):
65409227Format settings, QPel: Yes
Цитата:
- при кодировании видео была задействована любая из опций: QPel, GMC или Packed bitstream (Сжатый битовый поток); либо использовано более двух b-кадров или видео закодировано как чересстрочное.
Цитата:
- не обрезана чёрная рамка (letterbox)
# Сомнительно

[Профиль]  [ЛС] 
 
Ответить
Loading...
Error