Кости / Bones / Сезон: 5 / Серии: 1-22 (22) (Аллен Крокер) [2009, США, Драма, криминал, детектив, BDRip 900p] Dub (ТВ3)

Страницы:  1

Ответить
Автор
Сообщение

reliant

Стаж: 12 лет 11 месяцев

Сообщений: 615


reliant · 11-Янв-11 19:18 (7 лет 7 месяцев назад, ред. 12-Янв-11 15:34)

Кости / Bones / Сезон 5
Год выпуска: 2009
Страна: США
Жанр: Драма, криминал, детектив
Продолжительность: ~ 44 мин
Перевод: Профессиональный (полное дублирование) - ТВ3
Русские субтитры: нет
Режиссёр: Аллен Крокер
В ролях: Эмили Дешанель, Дэвид Бориназ, Михаэла Конлин, Эрик Миллиган, Т.Дж. Тайн, Тамара Тэйлор, Джонатан Адамс
Описание: Главная героиня сериала - доктор Темперанс Бреннан (Эмили Дешанель), блестящий судебный антрополог работает на ФБР, а в свободное время пишет романы. Темперанс владеет особым методом идентификации останков, что позволяет ей докапываться до истины и раскрывать преступления даже тогда, когда обычные методы криминалистики уже не действуют. В буквальном смысле слова она находит <ключи> к преступлениям в костях жертвы. Именно поэтому, возможно, ее часто привлекают к расследованию нераскрытых дел или дел с большим сроком давности.
Очень часто Темперанс приходится работать в паре со специальным агентом того же бюро Сили Бутом из отдела по расследованию убийств (Дэвид Бореаназ). Бут, бывший армейский снайпер, весьма скептический относится и к науке, и к ее представителям, презрительно называя их <очкарики>. Его точка зрения на раскрытие преступлений весьма проста: узнать правду можно лишь используя старомодные методы ведения дел, т.е. <работая> с теми, кто жив, - свидетелями и подозреваемыми. Столкновение личных и профессиональных интересов героев сериала <Кости> проходит центральной темой во всех сериях.
Качество: BD-Rip
Формат: MKV
Видео кодек: x264
Аудио кодек: AC3
Видео: 1600x900, x264, ~24 fps, ~6-8 Mbps, CRF18 (0.134-0.240 bpx)
Аудио 1 (русская) ТВ3 AC3 2.0, 192 kbit/s, 48K
Аудио 2 (английская): Ac3 5.1, 640 kbit/s, 48K
Скриншоты
MediaInfo
General
Complete name : Bones 5x01 BD-Rip.900p.x264.Rus.Eng.mkv
Format : Matroska
File size : 2.67 GiB
Duration : 44mn 3s
Overall bit rate : 8 676 Kbps
Encoded date : UTC 2011-01-11 09:23:53
Writing application : mkvmerge v3.2.0 ('Beginnings') built on Feb 12 2010 16:46:17
Writing library : libebml v0.7.9 + libmatroska v0.8.1
Video
ID : 1
Format : AVC
Format/Info : Advanced Video Codec
Format profile : [email protected]
Format settings, CABAC : Yes
Format settings, ReFrames : 5 frames
Muxing mode : Container [email protected]
Codec ID : V_MPEG4/ISO/AVC
Duration : 44mn 0s
Bit rate : 7 672 Kbps
Width : 1 600 pixels
Height : 900 pixels
Display aspect ratio : 16:9
Frame rate : 23.976 fps
Resolution : 24 bits
Colorimetry : 4:2:0
Scan type : Progressive
Bits/(Pixel*Frame) : 0.222
Stream size : 2.36 GiB (88%)
Writing library : x264 core 98 r1643 59a9e03
Encoding settings : cabac=1 / ref=5 / deblock=1:-1:-1 / analyse=0x3:0x113 / me=umh / subme=7 / psy=1 / psy_rd=1.00:0.00 / mixed_ref=1 / me_range=16 / chroma_me=1 / trellis=0 / 8x8dct=1 / cqm=0 / deadzone=21,11 / fast_pskip=0 / chroma_qp_offset=-2 / threads=9 / sliced_threads=0 / nr=0 / decimate=1 / interlaced=0 / constrained_intra=0 / bframes=3 / b_pyramid=2 / b_adapt=1 / b_bias=0 / direct=3 / weightb=1 / weightp=2 / keyint=240 / keyint_min=24 / scenecut=40 / intra_refresh=0 / rc_lookahead=40 / rc=crf / mbtree=1 / crf=19.0 / qcomp=0.60 / qpmin=10 / qpmax=51 / qpstep=4 / vbv_maxrate=50000 / vbv_bufsize=50000 / crf_max=0.0 / ip_ratio=1.40 / aq=1:1.00 / nal_hrd=none
Language : English
Audio #1
ID : 2
Format : AC-3
Format/Info : Audio Coding 3
Codec ID : A_AC3
Duration : 44mn 3s
Bit rate mode : Constant
Bit rate : 192 Kbps
Channel(s) : 2 channels
Channel positions : L R
Sampling rate : 48.0 KHz
Video delay : 980ms
Stream size : 60.5 MiB (2%)
Language : Russian
Audio #2
ID : 3
Format : AC-3
Format/Info : Audio Coding 3
Codec ID : A_AC3
Duration : 44mn 3s
Bit rate mode : Constant
Bit rate : 640 Kbps
Channel(s) : 6 channels
Channel positions : Front: L C R, Surround: L R, LFE
Sampling rate : 48.0 KHz
Stream size : 202 MiB (7%)
Language : English
Download
Для скачивания .torrent файлов необходима регистрация
Сайт не распространяет и не хранит электронные версии произведений, а лишь предоставляет доступ к создаваемому пользователями каталогу ссылок на торрент-файлы, которые содержат только списки хеш-сумм
[Профиль]  [ЛС] 

tishkoff14

VIP (Заслуженный)

Стаж: 10 лет 10 месяцев

Сообщений: 948

tishkoff14 · 12-Янв-11 14:28 (спустя 19 часов)

[Цитировать] 

Добавьте фактор качества в тех. данные.
[Профиль]  [ЛС] 

Optimus1982

Стаж: 11 лет 3 месяца

Сообщений: 532

Optimus1982 · 18-Июл-13 20:12 (спустя 2 года 6 месяцев)

[Цитировать] 

За два года один коммент?! И почему одна серия весит 2,6 Гб, а другая, например, 1,7 Гб?
[Профиль]  [ЛС] 

ShaKhru

Стаж: 9 лет 10 месяцев

Сообщений: 112


ShaKhru · 04-Окт-13 02:11 (спустя 2 месяца 16 дней)

[Цитировать] 

Optimus1982 писал(а):
60143509За два года один коммент?!
Дык кому сильно интересно такое странное разрешение?
[Профиль]  [ЛС] 

Optimus1982

Стаж: 11 лет 3 месяца

Сообщений: 532

Optimus1982 · 05-Окт-13 18:31 (спустя 1 день 16 часов)

[Цитировать] 

Посмотрев весь сезон могу сказать - в этой раздаче самое лучшее качество изображения, из всех сезонов в HD (смотрю 6-ой в 720р - чуть хуже, но не критично).
[Профиль]  [ЛС] 

urartu1989

Стаж: 6 лет 10 месяцев

Сообщений: 10


urartu1989 · 30-Ноя-14 14:33 (спустя 1 год 1 месяц)

[Цитировать] 

Отличное качество и хороший перевод, вот только объем уж очень большой, качалось долго, а в остальном раздача шикарная. Спасибо большое)))
[Профиль]  [ЛС] 
 
Ответить
Loading...
Error