(Jazz-Rock,Fusion) The Mahavishnu Orchestra - © 1971 - The Inner Mounting Flame (MFSL 24kt Gold UDCD 744), WAVPack (image+.cue), lossless

Страницы:  1

Ответить
Автор
Сообщение

coicoi88

Стаж: 10 лет 9 месяцев

Сообщений: 589

coicoi88 · 11-Окт-08 22:07 (10 лет назад, ред. 11-Окт-08 22:10)

The Mahavishnu Orchestra - © 1971 - The Inner Mounting Flame (MFSL 24kt Gold UDCD 744)
Жанр: Jazz-Rock,Fusion
Год выпуска диска: 1971
Производитель диска: Multi-National
Аудио кодек: WAVPack
Тип рипа: image+.cue
Битрейт аудио: lossless
Продолжительность: 46:34
Трэклист:
1. Meeting of the Spirits (6:52)
2. Dawn (5:10)
3. Noonward Race (6:28)
4. A Lotus on Irish Streams (5:39)
5. Vital Transformation (6:16)
6. The Dance of Maya (7:17)
7. You Know, You Know (5:07)
8. Awakening (3:32)
Доп. информация: Line-up/Musicians
- John McLaughlin / guitar
- Jerry Goodman / violin
- Jan Hammer / piano
- Rick Laird / bass
- Billy Cobham / drums
Отчёт EAC
EAC extraction logfile from 18. November 2005, 11:02 for CD
The Mahavishnu Orchestra with John Mclaughlin / The Inner Mounting Flame
Used drive : HL-DT-STDVDRAM GSA-4163B Adapter: 1 ID: 0
Read mode : Secure with NO C2, accurate stream, disable cache
Read offset correction : 6
Overread into Lead-In and Lead-Out : No
Used output format : Internal WAV Routines
44.100 Hz; 16 Bit; Stereo
Other options :
Fill up missing offset samples with silence : Yes
Delete leading and trailing silent blocks : No
Native Win32 interface for Win NT & 2000
Track 1
Filename C:\Temp\The Mahavishnu Orchestra with John Mclaughlin - The Inner Mounting Flame (1971)[flac](mfsl~dsd)\01 - Meeting of the Spirits.wav
Pre-gap length 0:00:02.00
Peak level 100.0 %
Track quality 100.0 %
Test CRC BDDC7297
Copy CRC BDDC7297
Copy OK
Track 2
Filename C:\Temp\The Mahavishnu Orchestra with John Mclaughlin - The Inner Mounting Flame (1971)[flac](mfsl~dsd)\02 - Dawn.wav
Pre-gap length 0:00:02.00
Peak level 100.0 %
Track quality 99.9 %
Test CRC 0CECAD44
Copy CRC 0CECAD44
Copy OK
Track 3
Filename C:\Temp\The Mahavishnu Orchestra with John Mclaughlin - The Inner Mounting Flame (1971)[flac](mfsl~dsd)\03 - Noonward Race.wav
Pre-gap length 0:00:01.00
Peak level 100.0 %
Track quality 100.0 %
Test CRC 5E4F0B72
Copy CRC 5E4F0B72
Copy OK
Track 4
Filename C:\Temp\The Mahavishnu Orchestra with John Mclaughlin - The Inner Mounting Flame (1971)[flac](mfsl~dsd)\04 - A Lotus on Irish Streams.wav
Pre-gap length 0:00:02.66
Peak level 96.8 %
Track quality 100.0 %
Test CRC 2C43819D
Copy CRC 2C43819D
Copy OK
Track 5
Filename C:\Temp\The Mahavishnu Orchestra with John Mclaughlin - The Inner Mounting Flame (1971)[flac](mfsl~dsd)\05 - Vital Transformation.wav
Pre-gap length 0:00:02.00
Peak level 100.0 %
Track quality 100.0 %
Test CRC B797CD63
Copy CRC B797CD63
Copy OK
Track 6
Filename C:\Temp\The Mahavishnu Orchestra with John Mclaughlin - The Inner Mounting Flame (1971)[flac](mfsl~dsd)\06 - The Dance of Maya.wav
Pre-gap length 0:00:02.33
Peak level 94.2 %
Track quality 100.0 %
Test CRC 9AB4C40A
Copy CRC 9AB4C40A
Copy OK
Track 7
Filename C:\Temp\The Mahavishnu Orchestra with John Mclaughlin - The Inner Mounting Flame (1971)[flac](mfsl~dsd)\07 - You Know, You Know.wav
Pre-gap length 0:00:02.81
Peak level 100.0 %
Track quality 100.0 %
Test CRC DD3C5097
Copy CRC DD3C5097
Copy OK
Track 8
Filename C:\Temp\The Mahavishnu Orchestra with John Mclaughlin - The Inner Mounting Flame (1971)[flac](mfsl~dsd)\08 - Awakening.wav
Pre-gap length 0:00:02.00
Peak level 92.9 %
Track quality 100.0 %
Test CRC 0FD9E500
Copy CRC 0FD9E500
Copy OK
No errors occured
End of status report
Download
Для скачивания .torrent файлов необходима регистрация
Сайт не распространяет и не хранит электронные версии произведений, а лишь предоставляет доступ к создаваемому пользователями каталогу ссылок на торрент-файлы, которые содержат только списки хеш-сумм
[Профиль]  [ЛС] 

mironov_ad

Moderator gray

Стаж: 11 лет 7 месяцев

Сообщений: 6572

mironov_ad · 11-Окт-08 22:45 (спустя 37 мин., ред. 12-Окт-08 00:26)

[Цитировать] 

Будем считать, что качество другое, нежели здесь. Все-таки MFSL.
[Профиль]  [ЛС] 

coicoi88

Стаж: 10 лет 9 месяцев

Сообщений: 589

coicoi88 · 11-Окт-08 23:41 (спустя 56 мин.)

[Цитировать] 

mironov_ad
Конечно, MFSL всегда на высоте.
[Профиль]  [ЛС] 

Darkman

Top Seed 05* 640r

Стаж: 10 лет 2 месяца

Сообщений: 10224

Darkman · 10-Ноя-08 04:32 (спустя 28 дней)

[Цитировать] 

MFSL WV - лучше чем APE?
[Профиль]  [ЛС] 

coicoi88

Стаж: 10 лет 9 месяцев

Сообщений: 589

coicoi88 · 03-Мар-09 22:00 (спустя 3 месяца 23 дня)

[Цитировать] 

Darkman
Честно говоря я не понял вопроса. MFSL он MFSL и в WV-е и в APE. Если любите APE переведите WV в обезьянку, это есть очень просто
[Профиль]  [ЛС] 

Author23

Top Seed 01* 40r

Стаж: 10 лет 5 месяцев

Сообщений: 386

Author23 · 19-Окт-09 11:28 (спустя 7 месяцев)

[Цитировать] 

coicoi88
смотрю в заголовок темы
Тип рипа: image+.cue
смотрю в лог
потрековое извлечение
"Так кто ж ты, наконец?"
[Профиль]  [ЛС] 

coicoi88

Стаж: 10 лет 9 месяцев

Сообщений: 589

coicoi88 · 19-Окт-09 14:02 (спустя 2 часа 33 мин.)

[Цитировать] 

Author23
Наконец соединение треков в один image помощю CueTools.
[Профиль]  [ЛС] 

jsBah

Стаж: 9 лет

Сообщений: 353


jsBah · 31-Окт-09 23:13 (спустя 12 дней, ред. 31-Окт-09 23:13)

[Цитировать] 

coicoi88 писал(а):
Author23
Наконец соединение треков в один image помощю CueTools.
И это отлично!
[Профиль]  [ЛС] 

Musicgate

Lossless Group

Стаж: 10 лет 5 месяцев

Сообщений: 6206

Musicgate · 18-Дек-09 00:54 (спустя 1 месяц 17 дней)

[Цитировать] 

статус изменен на сомнительно, в соттветствии с поправкой к правилам
1 - неправильное значение смещения
2 - несоответствие лога потрекового рипа файлу - имиджу
[Профиль]  [ЛС] 

camakas

Стаж: 8 лет 9 месяцев

Сообщений: 81


camakas · 09-Дек-11 18:07 (спустя 1 год 11 месяцев)

[Цитировать] 

Большое спасибо! Восстановлю потерянное - альбом один из любимейших...
[Профиль]  [ЛС] 

Darkman

Top Seed 05* 640r

Стаж: 10 лет 2 месяца

Сообщений: 10224

Darkman · 09-Дек-11 18:20 (спустя 12 мин.)

[Цитировать] 

обложка для релиза покрасивее... покрупнее:
скрытый текст
[Профиль]  [ЛС] 

Vuhryr58

Стаж: 7 лет 10 месяцев

Сообщений: 15


Vuhryr58 · 09-Авг-15 20:41 (спустя 3 года 8 месяцев)

[Цитировать] 

Очень понравились композиции "You Know You Know" и "Dawn".
[Профиль]  [ЛС] 
 
Ответить
Loading...
Error