Зима в огне / Winter on Fire: Ukraine's Fight For Freedom [HDTVRip 1080p EN, UA, RU]

Страницы:  1

Тема закрыта
Автор
Сообщение

BSX2

Стаж: 8 лет 11 месяцев

Сообщений: 13


BSX2 · 20-Мар-16 22:54 (1 год 8 месяцев назад)

Зима в огне: борьба за свободу / Winter on Fire: Ukraine's Fight For Freedom / Netflix 2015
Год выпуска: 2015
Страна: Укаина, США
Студия: Netflix
Жанр: политика, история
Продолжительность: 01.33.44
Перевод: Не требуется
Описание: Достаточно приуменьшенная, в плане жестокости, версия Евгения Афинеевского на события Евромайдана
Доп. информация: 2015 Кинофестиваль в Торонто приз зрительских симпатий за лучший документальный фильм «Зима в огне» Победа
2016 Оскар лучший документальный полнометражный фильм «Зима в огне» Номинация
Тип релиза: HDTVRip 1080p
Контейнер: MKV
Видео: 1920:1080p, mpeg4, AVC, 14.8мбит/c, 25 fps
Аудио: 2chanel stereo, 129 Кбит/сек, 48,0 КГц
MediaInfo
Формат                                   : Matroska
Версия формата : Version 4 / Version 2
Размер файла : 9,71 Гбайт
Продолжительность : 1 ч. 33 м.
Общий поток : 14,8 Мбит/сек
Дата кодирования : UTC 2016-02-24 05:28:58
Программа кодирования : mkvmerge v8.9.0 ('Father Daughter') 64bit
Библиотека кодирования : libebml v1.3.3 + libmatroska v1.4.4
Видео
Идентификатор : 1
Формат : AVC
Формат/Информация : Advanced Video Codec
Профиль формата : [email protected]
Параметр CABAC формата : Да
Параметр ReFrames формата : 4 кадра
Параметр GOP формата : M=1, N=25
Режим смешивания : Container [email protected]
Идентификатор кодека : V_MPEG4/ISO/AVC
Продолжительность : 1 ч. 33 м.
Битрейт : 14,7 Мбит/сек
Ширина : 1920 пикселей
Высота : 1080 пикселей
Соотношение сторон : 16:9
Режим частоты кадров : Постоянный
Частота кадров : 25,000 кадров/сек
Стандарт вещания : Component
Цветовое пространство : YUV
Субдискретизация насыщенности : 4:2:0
Битовая глубина : 8 бит
Тип развёртки : Прогрессивная
Бит/(Пиксели*Кадры) : 0.283
Размер потока : 9,62 Гбайт (99%)
Default : Да
Forced : Нет
Цветовой диапазон : Limited
Аудио
Идентификатор : 2
Формат : AAC
Формат/Информация : Advanced Audio Codec
Профиль формата : LC
Идентификатор кодека : A_AAC
Продолжительность : 1 ч. 33 м.
Битрейт : 129 Кбит/сек
Каналы : 2 канала
Расположение каналов : Front: L R
Частота : 48,0 КГц
Частота кадров : 46,875 кадров/сек (1024 spf)
Метод сжатия : С потерями
Задержка видео : 4 мс.
Размер потока : 86,6 Мбайт (1%)
Default : Да
Forced : Нет
Скриншоты

Семплhttps://yadi.sk/i/VQuC_-4mpoB6u
Download
Для скачивания .torrent файлов необходима регистрация
Сайт не распространяет и не хранит электронные версии произведений, а лишь предоставляет доступ к создаваемому пользователями каталогу ссылок на торрент-файлы, которые содержат только списки хеш-сумм
[Профиль]  [ЛС] 

Aids

VIP (Заслуженный)

Стаж: 8 лет

Сообщений: 3603

Aids · 21-Мар-16 22:08 (спустя 23 часа)

[Цитировать] 

Цитата:
Профиль формата: [email protected]
Цитата:
отсутствуют настройки кодирования
Цитата:
технические характеристики видеопотока превышают ограничения профиля h.264 [email protected]
# Сомнительно

[Профиль]  [ЛС] 
 
Тема закрыта
Loading...
Error