Игра престолов / Game of Thrones / Сезон: 6 / Серии: 1-10 (10) (Джереми Подесва, Марк Майлод) [2016, США, фэнтези, драма, приключения, экранизация, WEB-DL 720p] MVO (FocusStudio)

Страницы:  1

Ответить
Автор
Сообщение

devzz

Стаж: 3 года

Сообщений: 116


devzz · 28-Апр-16 23:46 (1 год 7 месяцев назад, ред. 05-Июл-16 21:57)


Игра престолов / Game of Thrones
6 сезон

Год выпуска: 2016
Страна: США
Жанр: фэнтези, драма, приключения
Продолжительность: 10 х 50-60 мин
Перевод: профессиональный многоголосый закадровый (FocusStudio)
Режиссёры: Джереми Подесва, Марк Майлод, Мигель Сапочник, Дэниэл Сакхайм, Джек Бендер
В ролях: Питер Динклэйдж, Лена Хиди, Николай Костер-Вальдау, Эмилия Кларк, Эйдан Гиллен, Иэн Глен, Кит Харингтон, Лиам Каннингэм, Айзек Хэмпстед-Райт, Софи Тернер, Мэйси Уильямс, Элфи Аллен, Джон Брэдли-Уэст, Кэрис Ван Хаутен, Джером Флинн, Конлет Хилл...
Описание: «Игра престолов» сериал HBO, основанный на бестселлерах Джорджа Р.Р. Мартина. В мире, где лето и зимы длятся десятилетиями, на кону корона Вестероса. Предательство, похоть, интриги и сверхъестественные силы сотрясают все четыре стороны Королевства — от плетущего интриги юга, диких восточных земель, до замерзшего севера и древней Стены, что защищает королевство от тьмы за нею. Короли и королевы, рыцари и мятежники, лжецы и благородные люди борются за власть в кровавом сражении за Железный Трон.
Релиз:

Ссылка на предыдущие и альтернативные раздачи
Качество: WEB-DL 720p
Формат: MKV
Видео: AVC, 1280x718 (16:9), 23,976 fps, ~3800 kbps
Аудио Rus: AC3, 48 kHz, 6 ch, 384 kbps
Аудио Eng: AC3, 48 kHz, 6 ch, 384 kbps
Субтитры: русские форсированные (на дотракийскую и валирийскую речь)
Скриншоты
MediaInfo
Format : Matroska
Format version : Version 4 / Version 2
File size : 1.62 GiB
Duration : 50mn 0s
Overall bit rate : 4 640 Kbps
Movie name : Game of Thrones 6x01 @ FocusStudio
Encoded date : UTC 2016-04-28 17:22:28
Writing application : mkvmerge v8.3.0 ('Over the Horizon') 64bit
Writing library : libebml v1.3.1 + libmatroska v1.4.2
Video
ID : 1
Format : AVC
Format/Info : Advanced Video Codec
Format profile : [email protected]
Format settings, CABAC : No
Format settings, ReFrames : 2 frames
Codec ID : V_MPEG4/ISO/AVC
Duration : 50mn 0s
Bit rate : 3 779 Kbps
Width : 1 280 pixels
Height : 718 pixels
Display aspect ratio : 16:9
Frame rate mode : Constant
Frame rate : 23.976 fps
Color space : YUV
Chroma subsampling : 4:2:0
Bit depth : 8 bits
Scan type : Progressive
Bits/(Pixel*Frame) : 0.172
Stream size : 1.32 GiB (81%)
Language : English
Default : Yes
Forced : No
Color range : Limited
Color primaries : BT.709
Transfer characteristics : BT.709
Matrix coefficients : BT.709
Audio #1
ID : 2
Format : AC-3
Format/Info : Audio Coding 3
Mode extension : CM (complete main)
Format settings, Endianness : Big
Codec ID : A_AC3
Duration : 50mn 0s
Bit rate mode : Constant
Bit rate : 384 Kbps
Channel(s) : 6 channels
Channel positions : Front: L C R, Side: L R, LFE
Sampling rate : 48.0 KHz
Compression mode : Lossy
Stream size : 137 MiB (8%)
Title : MVO FocusStudio
Language : Russian
Default : Yes
Forced : No
Audio #2
ID : 3
Format : AC-3
Format/Info : Audio Coding 3
Mode extension : CM (complete main)
Format settings, Endianness : Big
Codec ID : A_AC3
Duration : 50mn 0s
Bit rate mode : Constant
Bit rate : 384 Kbps
Channel(s) : 6 channels
Channel positions : Front: L C R, Side: L R, LFE
Sampling rate : 48.0 KHz
Compression mode : Lossy
Stream size : 137 MiB (8%)
Title : Original
Language : English
Default : No
Forced : No
Text
ID : 4
Format : ASS
Codec ID : S_TEXT/ASS
Codec ID/Info : Advanced Sub Station Alpha
Compression mode : Lossless
Title : Forced
Language : Russian
Default : Yes
Forced : Yes
Раздача ведется путем добавления новых серий
Когда раздача ведётся путём добавления новых серий, при каждом добавлении создётся новый торрент. Чтобы начать докачку новой серии, пользователям необходимо сделать следующее:
(1) остановить скачивание,
(2) удалить старый торрент у себя из клиента (старые серии удалять не надо),
(3) скачать новый торрент и запустить его у себя в клиенте вместо старого, при этом указать клиенту путь в старую папку, куда и должно происходить скачивание новых серий.
Ваш клиент при этом должен произвести хеширование (проверку) старой папки (если не производит сам - помогите ему сделать это), и будет докачивать только те серии, которых у вас ещё нет. Старые серии при этом не удаляются, а продолжают раздаваться!
Eсли вы уже удалили старые серии, то предотвратить повторную закачку старых серий можно, отжав галочку в соответствующих местах при запуске нового торрента. По возможности, желательно не удалять старые серии как можно дольше, чтобы релизёр не столько продолжал раздавать старые серии, а смог сконцентрироваться на новых.

Download
Для скачивания .torrent файлов необходима регистрация
Сайт не распространяет и не хранит электронные версии произведений, а лишь предоставляет доступ к создаваемому пользователями каталогу ссылок на торрент-файлы, которые содержат только списки хеш-сумм
[Профиль]  [ЛС] 

antalex54

Стаж: 8 лет 3 месяца

Сообщений: 50


antalex54 · 04-Май-16 21:21 (спустя 5 дней)

[Цитировать] 

Это последний сезон?
[Профиль]  [ЛС] 

devzz

Стаж: 3 года

Сообщений: 116


devzz · 19-Май-16 16:32 (спустя 14 дней)

[Цитировать] 

Добавлена 4 серия, русская дорожка в 3 cерии заменена.
[Профиль]  [ЛС] 

sawyer4

Top Bonus 02* 500GB

Стаж: 8 лет 9 месяцев

Сообщений: 1262

sawyer4 · 26-Май-16 14:56 (спустя 6 дней)

[Цитировать] 

FocusStudio для какого то канала озвучивает? или откуда озвучка берётся вообще?, я сначала думал для Амедии как сериал Винил, но для Амедии озвучивает студия Кравец.
[Профиль]  [ЛС] 

HandleMan

Стаж: 6 лет 3 месяца

Сообщений: 31

HandleMan · 21-Июн-16 10:21 (спустя 25 дней)

[Цитировать] 

Что-то с 9ой серией задерживаетесь, уже много где есть.
[Профиль]  [ЛС] 

Seedy13

Стаж: 8 лет 3 месяца

Сообщений: 23

Seedy13 · 27-Июн-16 01:31 (спустя 5 дней)

[Цитировать] 

Почему на rutracker не выкладывают серию в оригинальной озвучке? Она же раньше выходит
[Профиль]  [ЛС] 

polandrin

Стаж: 6 лет 3 месяца

Сообщений: 9


polandrin · 04-Июл-16 21:35 (спустя 7 дней)

[Цитировать] 

Когда десятая серия будет?
[Профиль]  [ЛС] 

cdon

Стаж: 8 лет 10 месяцев

Сообщений: 78

cdon · 19-Янв-17 22:04 (спустя 6 месяцев, ред. 19-Янв-17 22:04)

[Цитировать] 

Пожалуй, одна из лучших озвучек. Почему поздно спохватились? Существует-ли озвучка FocusStudio на прежние сезоны?
[Профиль]  [ЛС] 
 
Ответить
Loading...
Error