Винни Пух. Сборник мультфильмов (Винни-Пух идет в гости; Винни-Пух и день забот; Каникулы Бонифация; Топтыжка) (Федор Хитрук, Геннадий Сокольский) [1964-1972, мультфильм, BDRip 1080p]

Страницы:  1

Ответить
Автор
Сообщение

karasoft

Стаж: 10 лет

Сообщений: 97

karasoft · 30-Май-11 20:01 (7 лет 3 месяца назад, ред. 30-Май-11 22:10)

Винни Пух
Страна: СССР
Жанр: мультфильм
Продолжительность: 01:11:21
Год выпуска: 1964-1972
Перевод: Не требуется
Русские субтитры: нет
Режиссёр: Федор Хитрук, Геннадий Сокольский
Роли озвучивали: Евгений Леонов, Ия Саввина, Зинаида Нарышкина, Эраст Гарин, Владимир Осенев, Анатолий Щукин, Алексей Полевой, Елена Понсова
Содержание:
«ВИННИ-ПУХ» рисованный , 10 мин. 37 сек. Союзмультфильм, 1969 г.
Первый фильм-экранизация по сказке А.Милна. Винни-Пух и Пятачок отправляются за медом к дереву, где роятся дикие пчелы.
«ВИННИ-ПУХ ИДЕТ В ГОСТИ» рисованный , 10 мин. 25 сек. Союзмультфильм, 1971 г.
Второй фильм трилогии о том как Винни с Пятачком идут в гости к Кролику.
«ВИННИ-ПУХ И ДЕНЬ ЗАБОТ» рисованный , 20 мин. 21 сек. Союзмультфильм, 1972 г.
Третий фильм трилогии - У ослика Иа день рождения, о котором все забыли. Но друзья есть и они собираются дарить подарки...
«КАНИКУЛЫ БОНИФАЦИЯ» рисованный , 20 мин. 31 сек. Союзмультфильм, 1965 г.
О добром цирковом льве, который поехал на каникулы в Африку к бабушке и все время, вместо отдыха, развлекал малышей, показывая им цирковые представления.
«ТОПТЫЖКА» рисованный, перекладки , 9 мин. 25 сек. Союзмультфильм, 1964 г.
Сказка о маленьком медвежонке, подружившемся с зайчишкой. В фильме использованы рисунки художника Чарушина.

Семпл:
http://depositfiles.com/files/pbi32gzia
http://sendfile.su/355772
http://fileplanet.com.ua/6idb7kpy4ki7
Качество: BDRip 1080p
Формат: MKV
Видео: MPEG-4 AVC, 1424x1080, 23.976 fps, 10.7 Mbps
Аудио: AC3, 48 kHz, 6 ch, 448 kbps
Субтитры: нет
Подробные технические данные
Винни Пух
General
UniqueID : 188141417845480339665947143949722242824 (0x8D8AB8130EF38F45AD67A986FAFECF08)
Format : Matroska
File size : 865 MiB
Duration : 10mn 37s
Overall bit rate : 11.4 Mbps
Encoded date : UTC 2011-05-13 12:47:52
Writing application : mkvmerge v4.7.0 ('Just Like You Imagined') ñáîðêà îò Apr 21 2011 01:13:14
Writing library : libebml v1.2.0 + libmatroska v1.1.0
Video #1
ID : 1
Format : AVC
Format/Info : Advanced Video Codec
Format profile : [email protected]
Format settings, CABAC : Yes
Format settings, ReFrames : 5 frames
Codec ID : V_MPEG4/ISO/AVC
Duration : 10mn 37s
Bit rate : 10.7 Mbps
Nominal bit rate : 11.6 Mbps
Width : 1 424 pixels
Height : 1 080 pixels
Display aspect ratio : 4:3
Frame rate : 23.976 fps
Color space : YUV
Chroma subsampling : 4:2:0
Bit depth : 8 bits
Scan type : Progressive
Bits/(Pixel*Frame) : 0.290
Stream size : 813 MiB (94%)
Writing library : x264 core 114 r1924 08d04a4
Encoding settings : cabac=1 / ref=5 / deblock=1:-3:-3 / analyse=0x3:0x133 / me=umh / subme=10 / psy=1 / psy_rd=1.00:0.05 / mixed_ref=1 / me_range=64 / chroma_me=1 / trellis=2 / 8x8dct=1 / cqm=0 / deadzone=21,11 / fast_pskip=1 / chroma_qp_offset=-3 / threads=9 / sliced_threads=0 / nr=0 / decimate=1 / interlaced=0 / constrained_intra=0 / bframes=9 / b_pyramid=2 / b_adapt=2 / b_bias=0 / direct=3 / weightb=1 / open_gop=0 / weightp=2 / keyint=250 / keyint_min=23 / scenecut=40 / intra_refresh=0 / rc_lookahead=60 / rc=2pass / mbtree=1 / bitrate=11596 / ratetol=1.0 / qcomp=0.70 / qpmin=0 / qpmax=69 / qpstep=4 / cplxblur=20.0 / qblur=0.5 / vbv_maxrate=50000 / vbv_bufsize=62500 / nal_hrd=none / ip_ratio=1.40 / aq=1:0.90
Audio #2
ID : 2
Format : AC-3
Format/Info : Audio Coding 3
Mode extension : CM (complete main)
Codec ID : A_AC3
Duration : 10mn 37s
Bit rate mode : Constant
Bit rate : 448 Kbps
Channel(s) : 6 channels
Channel positions : Front: L C R, Side: L R, LFE
Sampling rate : 48.0 KHz
Bit depth : 16 bits
Compression mode : Lossy
Stream size : 34.1 MiB (4%)
Language : Russian
Винни Пух идет в гости
General
UniqueID : 203512092365555873573647409663230858450 (0x991B00D682B8DABEAD066B6C467BD4D2)
Format : Matroska
File size : 802 MiB
Duration : 10mn 20s
Overall bit rate : 10.8 Mbps
Encoded date : UTC 2011-05-13 13:20:16
Writing application : mkvmerge v4.7.0 ('Just Like You Imagined') ñáîðêà îò Apr 21 2011 01:13:14
Writing library : libebml v1.2.0 + libmatroska v1.1.0
Video #1
ID : 1
Format : AVC
Format/Info : Advanced Video Codec
Format profile : [email protected]
Format settings, CABAC : Yes
Format settings, ReFrames : 5 frames
Format settings, GOP : M=4, N=16
Codec ID : V_MPEG4/ISO/AVC
Duration : 10mn 20s
Bit rate mode : Variable
Bit rate : 10.2 Mbps
Maximum bit rate : 40.0 Mbps
Width : 1 424 pixels
Height : 1 080 pixels
Display aspect ratio : 4:3
Frame rate : 23.976 fps
Color space : YUV
Chroma subsampling : 4:2:0
Bit depth : 8 bits
Scan type : Progressive
Bits/(Pixel*Frame) : 0.276
Stream size : 753 MiB (94%)
Audio #2
ID : 2
Format : AC-3
Format/Info : Audio Coding 3
Mode extension : CM (complete main)
Codec ID : A_AC3
Duration : 10mn 20s
Bit rate mode : Constant
Bit rate : 448 Kbps
Channel(s) : 6 channels
Channel positions : Front: L C R, Side: L R, LFE
Sampling rate : 48.0 KHz
Bit depth : 16 bits
Compression mode : Lossy
Stream size : 33.1 MiB (4%)
Language : Russian
Винни Пух и день забот
General
UniqueID : 198227874224265844206458259758631980297 (0x95214CC4CF38BF23B0BF570063158D09)
Format : Matroska
File size : 1.49 GiB
Duration : 20mn 14s
Overall bit rate : 10.5 Mbps
Encoded date : UTC 2011-05-13 13:26:33
Writing application : mkvmerge v4.7.0 ('Just Like You Imagined') ñáîðêà îò Apr 21 2011 01:13:14
Writing library : libebml v1.2.0 + libmatroska v1.1.0
Video #1
ID : 1
Format : AVC
Format/Info : Advanced Video Codec
Format profile : [email protected]
Format settings, CABAC : Yes
Format settings, ReFrames : 5 frames
Format settings, GOP : M=2, N=16
Codec ID : V_MPEG4/ISO/AVC
Duration : 20mn 14s
Bit rate mode : Variable
Bit rate : 9 884 Kbps
Maximum bit rate : 40.0 Mbps
Width : 1 424 pixels
Height : 1 080 pixels
Display aspect ratio : 4:3
Frame rate : 23.976 fps
Color space : YUV
Chroma subsampling : 4:2:0
Bit depth : 8 bits
Scan type : Progressive
Bits/(Pixel*Frame) : 0.268
Stream size : 1.40 GiB (94%)
Audio #2
ID : 2
Format : AC-3
Format/Info : Audio Coding 3
Mode extension : CM (complete main)
Codec ID : A_AC3
Duration : 20mn 14s
Bit rate mode : Constant
Bit rate : 448 Kbps
Channel(s) : 6 channels
Channel positions : Front: L C R, Side: L R, LFE
Sampling rate : 48.0 KHz
Bit depth : 16 bits
Compression mode : Lossy
Stream size : 64.9 MiB (4%)
Language : Russian
Каникулы Бонифация
General
UniqueID : 180082920698838114323995559181838019943 (0x877AB57D65B337CFBCE950CE06C16D67)
Format : Matroska
File size : 2.08 GiB
Duration : 20mn 26s
Overall bit rate : 14.6 Mbps
Encoded date : UTC 2011-05-13 13:30:16
Writing application : mkvmerge v4.7.0 ('Just Like You Imagined') ñáîðêà îò Apr 21 2011 01:13:14
Writing library : libebml v1.2.0 + libmatroska v1.1.0
Video #1
ID : 1
Format : AVC
Format/Info : Advanced Video Codec
Format profile : [email protected]
Format settings, CABAC : Yes
Format settings, ReFrames : 5 frames
Format settings, GOP : M=5, N=8
Codec ID : V_MPEG4/ISO/AVC
Duration : 20mn 26s
Bit rate mode : Variable
Bit rate : 13.9 Mbps
Maximum bit rate : 40.0 Mbps
Width : 1 424 pixels
Height : 1 080 pixels
Display aspect ratio : 4:3
Frame rate : 23.976 fps
Color space : YUV
Chroma subsampling : 4:2:0
Bit depth : 8 bits
Scan type : Progressive
Bits/(Pixel*Frame) : 0.376
Stream size : 1.98 GiB (95%)
Audio #2
ID : 2
Format : AC-3
Format/Info : Audio Coding 3
Mode extension : CM (complete main)
Codec ID : A_AC3
Duration : 20mn 26s
Bit rate mode : Constant
Bit rate : 448 Kbps
Channel(s) : 6 channels
Channel positions : Front: L C R, Side: L R, LFE
Sampling rate : 48.0 KHz
Bit depth : 16 bits
Compression mode : Lossy
Stream size : 65.5 MiB (3%)
Language : Russian
Топтыжка
General
UniqueID : 199542098318639059346269591477288730197 (0x961E6904F31054AE9B0B0C85494C7E55)
Format : Matroska
File size : 823 MiB
Duration : 9mn 24s
Overall bit rate : 12.2 Mbps
Encoded date : UTC 2011-05-13 14:04:22
Writing application : mkvmerge v4.7.0 ('Just Like You Imagined') ñáîðêà îò Apr 21 2011 01:13:14
Writing library : libebml v1.2.0 + libmatroska v1.1.0
Video #1
ID : 1
Format : AVC
Format/Info : Advanced Video Codec
Format profile : [email protected]
Format settings, CABAC : Yes
Format settings, ReFrames : 5 frames
Codec ID : V_MPEG4/ISO/AVC
Duration : 9mn 24s
Bit rate mode : Variable
Bit rate : 11.5 Mbps
Maximum bit rate : 40.0 Mbps
Width : 1 424 pixels
Height : 1 080 pixels
Display aspect ratio : 4:3
Frame rate : 23.976 fps
Color space : YUV
Chroma subsampling : 4:2:0
Bit depth : 8 bits
Scan type : Progressive
Bits/(Pixel*Frame) : 0.313
Stream size : 776 MiB (94%)
Audio #2
ID : 2
Format : AC-3
Format/Info : Audio Coding 3
Mode extension : CM (complete main)
Codec ID : A_AC3
Duration : 9mn 24s
Bit rate mode : Constant
Bit rate : 448 Kbps
Channel(s) : 6 channels
Channel positions : Front: L C R, Side: L R, LFE
Sampling rate : 48.0 KHz
Bit depth : 16 bits
Compression mode : Lossy
Stream size : 30.1 MiB (4%)
Language : Russian
Скриншоты
Винни Пух
Винни Пух идет в гости
Винни Пух и день забот
Каникулы Бонифация
Топтыжка
Download
Для скачивания .torrent файлов необходима регистрация
Сайт не распространяет и не хранит электронные версии произведений, а лишь предоставляет доступ к создаваемому пользователями каталогу ссылок на торрент-файлы, которые содержат только списки хеш-сумм
[Профиль]  [ЛС] 

vancouver26

VIP (Заслуженный)

Стаж: 10 лет 10 месяцев

Сообщений: 1025

vancouver26 · 30-Май-11 20:54 (спустя 52 мин.)

[Цитировать] 

Почему в описание не добавлены 2 мультфильма, которые не являются сериями про Винни Пуха?
[Профиль]  [ЛС] 

karasoft

Стаж: 10 лет

Сообщений: 97

karasoft · 30-Май-11 21:35 (спустя 40 мин., ред. 30-Май-11 21:35)

[Цитировать] 

vancouver26 писал(а):
Почему в описание не добавлены 2 мультфильма, которые не являются сериями про Винни Пуха?
Согласно пункту правил: http://rutracker.org/forum/viewtopic.php?t=2147858#6
В заголовок раздачи сборника не обязательно выносить названия всех входящих в него фильмов (достаточно указать общую франшизу), но обязательно выносить имена всех режиссеров и все года выпуска фильмов, входящих в сборник.
На обложке диска ведь тоже ничего не указано!
P.S. Дополнительные мультфильмы там добавлены для нагрузки, ведь нецелесообразно покупать целый Blu-ray диск ради двух коротких мультфильмов, да еще и сомнительного качества.
[Профиль]  [ЛС] 

vancouver26

VIP (Заслуженный)

Стаж: 10 лет 10 месяцев

Сообщений: 1025

vancouver26 · 30-Май-11 21:42 (спустя 7 мин.)

[Цитировать] 

ну так пользователи не знают про франшизу....
Окажите милость им, укажите про Бонифация :-))
[Профиль]  [ЛС] 

ilyakizlyar

Стаж: 9 лет 8 месяцев

Сообщений: 66

ilyakizlyar · 31-Май-11 09:36 (спустя 11 часов)

[Цитировать] 

Интересно, когда-нибудь выйдут советские мультики реально в ХД, а не в этом...
[Профиль]  [ЛС] 

анвад

Стаж: 9 лет 11 месяцев

Сообщений: 3152

анвад · 31-Май-11 23:38 (спустя 14 часов)

[Цитировать] 

Скрины Бонифация & Топтышки чавойта не глянуть...
Или все те же какашки..?
[Профиль]  [ЛС] 

Бенд

Стаж: 10 лет

Сообщений: 33


Бенд · 01-Июн-11 20:04 (спустя 20 часов)

[Цитировать] 

Ждать от товарищей с HDCLUB или это окончательный релиз? и еще бы Леопольда в нормальном качестве отдельно каждую серию
[Профиль]  [ЛС] 

karasoft

Стаж: 10 лет

Сообщений: 97

karasoft · 01-Июн-11 22:38 (спустя 2 часа 34 мин., ред. 01-Июн-11 22:38)

[Цитировать] 

Бенд писал(а):
Ждать от товарищей с HDCLUB или это окончательный релиз? и еще бы Леопольда в нормальном качестве отдельно каждую серию
Такое вот качество на диске и было. Другого нет.
Леопольд здесь http://rutracker.org/forum/viewtopic.php?t=3592434
анвад писал(а):
Скрины Бонифация & Топтышки чавойта не глянуть...
Или все те же какашки..?
Всё оно одно.
[Профиль]  [ЛС] 

marooned

Top User 01

Стаж: 13 лет 1 месяц

Сообщений: 108

marooned · 05-Июн-11 13:33 (спустя 3 дня)

[Цитировать] 

Блин, да когда ж у этого Лизарда руки отсохнут. Что не релиз - то очередной апскейп.
[Профиль]  [ЛС] 

KazKN30

Стаж: 9 лет 1 месяц

Сообщений: 13

KazKN30 · 03-Июл-11 08:42 (спустя 27 дней)

[Цитировать] 

Автор, ну уважил!! от всей семьи респект ;)!
[Профиль]  [ЛС] 

Valery_100

Стаж: 7 лет 7 месяцев

Сообщений: 75


Valery_100 · 05-Янв-12 22:29 (спустя 6 месяцев)

[Цитировать] 

СССРовский Пух самый четкий. Спасибо!
[Профиль]  [ЛС] 

cool wie keiner

Стаж: 9 лет 2 месяца

Сообщений: 60


cool wie keiner · 11-Апр-12 17:30 (спустя 3 месяца 5 дней)

[Цитировать] 

Это все серии СССРовского Винни Пуха или ещё есть?
[Профиль]  [ЛС] 

Bayard13

Стаж: 8 лет 9 месяцев

Сообщений: 174

Bayard13 · 17-Авг-12 09:22 (спустя 4 месяца 5 дней, ред. 17-Авг-12 09:22)

[Цитировать] 

Мультфильм вне конкуренции!!!
Вне времени и вне возраста - америкосам никогда не снят такой шедевр. Хотя и у них есть отличные работы (как правило, провалившиеся в их собственном прокате)
Спасибо за раздачу!
В детстве совершенно не нравился мульт "Каникулы Бонифация"
И только будучи отцом понял, насколько добрый и хороший фильм!
[Профиль]  [ЛС] 

xtemp09

Стаж: 8 лет 10 месяцев

Сообщений: 115

xtemp09 · 12-Фев-13 17:12 (спустя 5 месяцев 26 дней)

[Цитировать] 

Кто сказал: "Нужно делать так, как нужно, а как не нужно, делать не нужно"? В педивикии и во всём интернете говорится, что это сказал Винни Пух. Однако, я просмотрел всего Винни Пуха и он этого не говорил! Это также не говорилось в 38-ми попугаях.
Кто сказал эту фразу?
[Профиль]  [ЛС] 

dragon_uz

Стаж: 7 лет 9 месяцев

Сообщений: 3


dragon_uz · 25-Фев-13 17:46 (спустя 13 дней)

[Цитировать] 

xtemp09 писал(а):
57852730Кто сказал: "Нужно делать так, как нужно, а как не нужно, делать не нужно"? В педивикии и во всём интернете говорится, что это сказал Винни Пух. Однако, я просмотрел всего Винни Пуха и он этого не говорил! Это также не говорилось в 38-ми попугаях.
Кто сказал эту фразу?
Незнайка ?
[Профиль]  [ЛС] 

xtemp09

Стаж: 8 лет 10 месяцев

Сообщений: 115

xtemp09 · 25-Фев-13 19:15 (спустя 1 час 28 мин.)

[Цитировать] 

Грепом прошёл по книгам Незнайки - нет. :'(
[Профиль]  [ЛС] 

Sla888

Стаж: 8 лет 9 месяцев

Сообщений: 30


Sla888 · 08-Мар-13 05:00 (спустя 10 дней)

[Цитировать] 

xtemp09 писал(а):
57852730Кто сказал: "Нужно делать так, как нужно, а как не нужно, делать не нужно"? В педивикии и во всём интернете говорится, что это сказал Винни Пух. Однако, я просмотрел всего Винни Пуха и он этого не говорил! Это также не говорилось в 38-ми попугаях.
Кто сказал эту фразу?
Осмелюсь предположить, что фраза была в книге (пересказе Заходера). Но я не знаю, что вы имели в виду под "просмотрел всего Винни Пуха": книгу или мульт.
[Профиль]  [ЛС] 

xtemp09

Стаж: 8 лет 10 месяцев

Сообщений: 115

xtemp09 · 09-Мар-13 00:04 (спустя 19 часов)

[Цитировать] 

Sla888, в переводе 3аходера нету этой фразы.
Пересмотрел все мультики и грепом прошёлся по книге.
[Профиль]  [ЛС] 

xtemp09

Стаж: 8 лет 10 месяцев

Сообщений: 115

xtemp09 · 04-Апр-13 12:13 (спустя 26 дней)

[Цитировать] 

Вообще, эта фраза довольно длинная для Винни-Пуха, он сочинял только короткие кричалки.
[Профиль]  [ЛС] 

KPbICCC

Стаж: 8 лет 5 месяцев

Сообщений: 6


KPbICCC · 01-Фев-15 05:01 (спустя 1 год 9 месяцев)

[Цитировать] 

В релизе по размеру в три раза меньше качество картинки на порядок лучше.
[Профиль]  [ЛС] 

Borunduk

Стаж: 9 лет 10 месяцев

Сообщений: 214

Borunduk · 08-Апр-15 10:46 (спустя 2 месяца 7 дней)

[Цитировать] 

KPbICCC писал(а):
66725028В релизе по размеру в три раза меньше качество картинки на порядок лучше.
В каком релизе?
[Профиль]  [ЛС] 

orlovich1971

Стаж: 4 года 9 месяцев

Сообщений: 1235

orlovich1971 · 26-Мар-17 10:44 (спустя 1 год 11 месяцев)

[Цитировать] 

Лучшие мультфильмы СССР в НД качестве, это просто праздник.Спасибо за работу!!!
[Профиль]  [ЛС] 
 
Ответить
Loading...
Error