Нашествие (2 серии из 2) (Вадим Гасанов) [2015, Россия, Документальный, история, HDTV 1080i]

Страницы:  1

Ответить
Автор
Сообщение

ylnian

Стаж: 7 лет 3 месяца

Сообщений: 719

ylnian · 05-Июн-17 16:05 (6 месяцев назад, ред. 05-Июн-17 16:11)

Нашествие
Страна: Россия
Студия: Т/к "Россия", ВГТРК, Синеон-Фильм
Жанр: Документальный, история
Год выпуска: 2015
Продолжительность: 01:25:32
Режиссёр: Вадим Гасанов
Описание: Фильм посвящен героической борьбе русских княжеств против монгольских завоевателей. Зима 1237-1238 годов. Всего четыре месяца потребовалось монголам, чтобы уничтожить русские княжества. Наиболее важные события: сражения на Воронеже и у Коломны, героическая оборона Рязани и Владимира, мужество Козельска. Почему поход монголов на Южную Русь носил уже прикладной характер, почему судьба мощнейшего Галицко-Волынского княжества была решена, по сути, без боя, и почему Южная Русь на века выпала из русской истории? Авторы фильма пытаются объяснить, почему события далекой зимы разворачивались именно так, почему монголы смогли выиграть эту кампанию и что русские княжества смогли противопоставить лучшей армии мира. Наши предки сделали все, что было в их силах, и даже сверх того, хотя борьба изначально была неравной и предрешенной. Это трагедия – самая мрачная в нашей истории. Но трагедия героическая. Наши предки смогли найти в себе силы встать против врага, которому просто не было равных в обитаемом мире. Они погибли, но погибли как герои.
Доп. информация:
Автор релиза -
Источник - HDTV 1080i TS - моя запись с канала Россия-1 HD
Сэмпл: https://yadi.sk/i/ST7MrdtF3JqbiB
Рекламы нет!
Качество видео: HDTV 1080i
Формат видео: TS
Видео: MPEG-4 AVC, 1920x1080 (16:9), 25.000 fps, ~7300 kbps, 0.14 bit/pixel
Аудио: Русский MP2, 48000 Гц, 2ch, 192 kbps
MediaInfo
Общее
Идентификатор : 1 (0x1)
Полное имя : D:\Нашествие.2.серии.из.2.2015.HDTV.1080i-ylnian\Нашествие.1.серия.2015.HDTV.1080i-ylnian.ts
Формат : MPEG-TS
Размер файла : 2,58 Гбайт
Продолжительность : 43 м. 58 с.
Режим общего битрейта : Переменный
Общий поток : 8399 Кбит/сек
Видео
Идентификатор : 1178 (0x49A)
Идентификатор меню : 1138 (0x472)
Формат : AVC
Формат/Информация : Advanced Video Codec
Профиль формата : [email protected]
Параметр CABAC формата : Да
Параметр ReFrames формата : 4 кадра
Идентификатор кодека : 27
Продолжительность : 43 м. 59 с.
Битрейт : 7790 Кбит/сек
Ширина : 1920 пикселей
Высота : 1080 пикселей
Соотношение сторон : 16:9
Частота кадров : 25,000 кадров/сек
Стандарт вещания : Component
Цветовое пространство : YUV
Субдискретизация насыщенности : 4:2:0
Битовая глубина : 8 бит
Тип развёртки : Чересстрочная
Метод сохранения типа развёртки : Раздельные поля
Порядок развёртки : Верхнее поле первое
Бит/(Пиксели*Кадры) : 0.150
Размер потока : 2,39 Гбайт (93%)
Цветовой диапазон : Limited
Основные цвета : BT.709
Характеристики трансфера : BT.709
Коэффициенты матрицы : BT.709
Аудио
Идентификатор : 1179 (0x49B)
Идентификатор меню : 1138 (0x472)
Формат : MPEG Audio
Версия формата : Version 1
Профиль формата : Layer 2
Идентификатор кодека : 3
Продолжительность : 44 м. 0 с.
Вид битрейта : Постоянный
Битрейт : 192 Кбит/сек
Каналы : 2 канала
Частота : 48,0 КГц
Метод сжатия : С потерями
Задержка видео : -120 мс.
Размер потока : 60,4 Мбайт (2%)
Язык : Russian
Общее
Идентификатор : 1 (0x1)
Полное имя : D:\Нашествие.2.серии.из.2.2015.HDTV.1080i-ylnian\Нашествие.2.серия.2015.HDTV.1080i-ylnian.ts
Формат : MPEG-TS
Размер файла : 2,15 Гбайт
Продолжительность : 41 м. 29 с.
Режим общего битрейта : Переменный
Общий поток : 7404 Кбит/сек
Видео
Идентификатор : 1178 (0x49A)
Идентификатор меню : 1138 (0x472)
Формат : AVC
Формат/Информация : Advanced Video Codec
Профиль формата : [email protected]
Параметр CABAC формата : Да
Параметр ReFrames формата : 4 кадра
Идентификатор кодека : 27
Продолжительность : 41 м. 31 с.
Битрейт : 6844 Кбит/сек
Ширина : 1920 пикселей
Высота : 1080 пикселей
Соотношение сторон : 16:9
Частота кадров : 25,000 кадров/сек
Стандарт вещания : Component
Цветовое пространство : YUV
Субдискретизация насыщенности : 4:2:0
Битовая глубина : 8 бит
Тип развёртки : Чересстрочная
Метод сохранения типа развёртки : Раздельные поля
Порядок развёртки : Верхнее поле первое
Бит/(Пиксели*Кадры) : 0.132
Размер потока : 1,99 Гбайт (93%)
Цветовой диапазон : Limited
Основные цвета : BT.709
Характеристики трансфера : BT.709
Коэффициенты матрицы : BT.709
Аудио
Идентификатор : 1179 (0x49B)
Идентификатор меню : 1138 (0x472)
Формат : MPEG Audio
Версия формата : Version 1
Профиль формата : Layer 2
Идентификатор кодека : 3
Продолжительность : 41 м. 31 с.
Вид битрейта : Постоянный
Битрейт : 192 Кбит/сек
Каналы : 2 канала
Частота : 48,0 КГц
Метод сжатия : С потерями
Задержка видео : -40 мс.
Размер потока : 57,0 Мбайт (3%)
Язык : Russian
Скриншоты
Download
Для скачивания .torrent файлов необходима регистрация
Сайт не распространяет и не хранит электронные версии произведений, а лишь предоставляет доступ к создаваемому пользователями каталогу ссылок на торрент-файлы, которые содержат только списки хеш-сумм
[Профиль]  [ЛС] 

bot · 07-Июн-17 19:44 (спустя 2 дня 3 часа)

Тема была перенесена из форума Документальные (HD Video) в форум История (HD Video)
Aids
 
 
Ответить
Loading...
Error