Забытый подвиг, известный всем (Вадим Гасанов) [2014, Россия, Документальный, история, биография, HDTV 1080i]

Страницы:  1

Ответить
Автор
Сообщение

ylnian

Стаж: 7 лет 3 месяца

Сообщений: 721

ylnian · 15-Май-17 08:38 (6 месяцев назад)

Забытый подвиг, известный всем
Страна: Россия
Студия: Т/к "Россия", ВГТРК, ООО "Синеон-Фильм"
Жанр: Документальный, история, биография
Год выпуска: 2014
Продолжительность: 00:43:57
Режиссёр: Вадим Гасанов
Описание: Князь Игорь - герой знаменитого "Слова о полку Игореве". Почему героем повести стал князь, потерпевший поражение, и почему до сих пор достаточно назвать лишь его имя, чтобы понять, о ком именно идет речь? Князь Игорь – герой, ставший примером для подражания. Он совершил подвиг, поразивший современников и ставший образцом для потомков. Авторы фильма пытаются ответить на вопросы, используя нестандартные для документального кино приемы, а также натурные съемки в местах, связанных с историей князя Игоря.
Доп. информация:
Автор релиза -
Источник - HDTV 1080i TS - моя запись с канала Россия-1 HD
Сэмпл: https://yadi.sk/i/mChUV6qm3J9V4H
Рекламы нет!
Качество видео: HDTV 1080i
Формат видео: TS
Видео: MPEG-4 AVC, 1920x1080 (16:9), 25.000 fps, 5638 kbps, 0.109 bit/pixel
Аудио: Русский MP2, 48000 Гц, 2ch, 192 kbps
MediaInfo
Общее
Идентификатор : 1 (0x1)
Полное имя : D:\Забытый.подвиг.известный.всем.2014.HDTV.1080i-ylnian.ts
Формат : MPEG-TS
Размер файла : 1,88 Гбайт
Продолжительность : 43 м. 55 с.
Режим общего битрейта : Переменный
Общий поток : 6135 Кбит/сек
Видео
Идентификатор : 1178 (0x49A)
Идентификатор меню : 1138 (0x472)
Формат : AVC
Формат/Информация : Advanced Video Codec
Профиль формата : [email protected]
Параметр CABAC формата : Да
Параметр ReFrames формата : 4 кадра
Идентификатор кодека : 27
Продолжительность : 43 м. 56 с.
Битрейт : 5638 Кбит/сек
Ширина : 1920 пикселей
Высота : 1080 пикселей
Соотношение сторон : 16:9
Частота кадров : 25,000 кадров/сек
Стандарт вещания : Component
Цветовое пространство : YUV
Субдискретизация насыщенности : 4:2:0
Битовая глубина : 8 бит
Тип развёртки : Чересстрочная
Метод сохранения типа развёртки : Раздельные поля
Порядок развёртки : Верхнее поле первое
Бит/(Пиксели*Кадры) : 0.109
Размер потока : 1,73 Гбайт (92%)
Цветовой диапазон : Limited
Основные цвета : BT.709
Характеристики трансфера : BT.709
Коэффициенты матрицы : BT.709
Аудио
Идентификатор : 1179 (0x49B)
Идентификатор меню : 1138 (0x472)
Формат : MPEG Audio
Версия формата : Version 1
Профиль формата : Layer 2
Идентификатор кодека : 3
Продолжительность : 43 м. 56 с.
Вид битрейта : Постоянный
Битрейт : 192 Кбит/сек
Каналы : 2 канала
Частота : 48,0 КГц
Метод сжатия : С потерями
Задержка видео : -120 мс.
Размер потока : 60,4 Мбайт (3%)
Язык : Russian
Download
Для скачивания .torrent файлов необходима регистрация
Сайт не распространяет и не хранит электронные версии произведений, а лишь предоставляет доступ к создаваемому пользователями каталогу ссылок на торрент-файлы, которые содержат только списки хеш-сумм
[Профиль]  [ЛС] 

bot · 16-Май-17 21:59 (спустя 1 день 13 часов)

Тема была перенесена из форума Документальные (HD Video) в форум История (HD Video)
AlexSchl
 

effrit_

Стаж: 9 лет 1 месяц

Сообщений: 130

effrit_ · 21-Май-17 18:57 (спустя 6 дней)

[Цитировать] 

В кои-то веки решил отечественный фильм посмотреть, про нашу историю, и тут такое УГ: стихи с надрывным пафосом читают, а основной диктор предложения рвет на части, будто в первых классах чтение сдает.
Невозможно слушать.
[Профиль]  [ЛС] 

TheRock

Стаж: 7 лет 9 месяцев

Сообщений: 164

TheRock · 22-Сен-17 20:57 (спустя 4 месяца 1 день)

[Цитировать] 

вот те раз,всегда считал Игоря Северского антигероем,человек который решил воспользоваться ситуацией,отправившись с небольшой дружиной не в военный поход с другими князьями,а в то что называлась в средние века "войной",т.е. грабительский поход,направленный не на прямое военное столкновение с противником а грабёж его территории,он как раз даже в повести прямо показан как антигерой,произведение и написано было по всей видимости показать как делать не надо
[Профиль]  [ЛС] 
 
Ответить
Loading...
Error