[TR24][OF] Dolly Parton - I Believe In You - 2017 (Country)

Страницы:  1

Ответить
Автор
Сообщение

papa1954

Top Seed 09* 10240r

Стаж: 11 лет 6 месяцев

Сообщений: 16484

papa1954 · 29-Сен-17 11:45 (11 месяцев назад, ред. 29-Сен-17 11:48)

Dolly Parton - I Believe In You Формат записи/Источник записи: [TR24][OF]
Наличие водяных знаков: Нет
Год издания/переиздания диска: 2017
Жанр: Country
Издатель (лейбл): RCA Records Label Nashville
Продолжительность: 28:45
Наличие сканов в содержимом раздачи: Только обложка альбома
Треклист:
01. I Believe In You (2:00)
02. Coat Of Many Colors (2:56)
03. Together Forever (2:26)
04. I Am A Rainbow (1:58)
05. I'm Here (2:27)
06. A Friend Like You (1:52)
07. Imagination (2:23)
08. You Can Do It (1:53)
09. Responsibility (1:54)
10. You Gotta Be (1:54)
11. Makin' Fun Ain't Funny (2:19)
12. Chemo Hero (2:09)
13. Brave Little Soldier (2:34)
 

Контейнер: FLAC (*.flac)
Тип рипа: tracks
Разрядность: 24/44,1
Формат: PCM
Количество каналов: 2.0
Лог проверки качества
foobar2000 1.3.9 / Dynamic Range Meter 1.1.1
log date: 2017-09-29 11:40:20
--------------------------------------------------------------------------------
Analyzed: Dolly Parton / I Believe In You
--------------------------------------------------------------------------------
DR Peak RMS Duration Track
--------------------------------------------------------------------------------
DR9 -0.41 dB -11.21 dB 2:00 01-I Believe In You
DR9 -3.54 dB -14.44 dB 2:56 02-Coat Of Many Colors
DR9 -0.10 dB -10.21 dB 2:26 03-Together Forever
DR9 -0.62 dB -10.79 dB 1:58 04-I Am A Rainbow
DR7 -2.30 dB -11.60 dB 2:27 05-I'm Here
DR8 -0.78 dB -10.21 dB 1:52 06-A Friend Like You
DR8 -0.87 dB -10.65 dB 2:23 07-Imagination
DR9 -0.74 dB -10.51 dB 1:53 08-You Can Do It
DR9 -0.62 dB -11.28 dB 1:54 09-Responsibility
DR8 -0.62 dB -9.92 dB 1:54 10-You Gotta Be
DR10 -0.87 dB -11.95 dB 2:19 11-Makin' Fun Ain't Funny
DR9 -0.56 dB -10.93 dB 2:09 12-Chemo Hero
DR9 -0.87 dB -11.95 dB 2:34 13-Brave Little Soldier
DR16 -4.65 dB -22.57 dB 2:45 14-A Reading Of “Coat Of Many Colors” (Bonus Track)
--------------------------------------------------------------------------------
Number of tracks: 14
Official DR value: DR9
Samplerate: 44100 Hz
Channels: 2
Bits per sample: 24
Bitrate: 1261 kbps
Codec: FLAC
================================================================================
Источник: 7digital.com
Download
Для скачивания .torrent файлов необходима регистрация
Сайт не распространяет и не хранит электронные версии произведений, а лишь предоставляет доступ к создаваемому пользователями каталогу ссылок на торрент-файлы, которые содержат только списки хеш-сумм
[Профиль]  [ЛС] 

ichbinich

Победители конкурсов

Стаж: 7 лет 1 месяц

Сообщений: 1834

ichbinich · 01-Окт-17 12:04 (спустя 2 дня)

[Цитировать] 

Куколка Долли, оказывается, еще даже альбомы выпускает...
[Профиль]  [ЛС] 
 
Ответить
Loading...
Error