Голубая кровь. Гибель империи (Виталий Якушев, Ирина Чернова) [2013, Документалистика, HDTV 1080i]

Страницы:  1

Ответить
Автор
Сообщение

semenonn

Top Seed 04* 320r

Стаж: 8 лет 9 месяцев

Сообщений: 761

semenonn · 12-Ноя-14 16:40 (3 года 1 месяц назад, ред. 12-Ноя-14 16:41)

Голубая кровь. Гибель империи
Год выпуска: 2013
Страна: Россия
Студия: Мира-продакшн
Жанр: Документалистика
Продолжительность: 00:44:00
Перевод: Не требуется
Русские субтитры: нет
Режиссер: Виталий Якушев, Ирина Чернова
Описание: Этот фильм о трагической судьбе царевича Алексея и о том, какое влияние его страшная болезнь оказала на судьбу России в 20 веке.
О рождении сына в царской семье мечтали. Ведь на протяжении десяти лет в их семье появлялись лишь девочки. Престолу необходим был наследник. И вот в самый разгар русско-японской войны свершилось чудо. Императрица родила мальчика. Счастье Романовых было безгранично. Но скоро последовало жуткое открытие – маленький Алексей неизлечимо болен. Гемофилия.
скрытый текст
Со времени обнаружения болезни у Алексея все внимание несчастной матери переключилось на сына. Спасти своего ребенка она должна любой ценой! Вынужденные улыбаться во время приемов и выходов, Николай и Александра мечтали лишь об одном – поскорее оказаться рядом со своим больным, может быть, умирающим сыном. Но никто, кроме лечащих докторов, не должен был знать о страшном диагнозе наследника престола. Это была государственная тайна.
Убедившись, что медицина бессильна помочь Алексею, Александра Федоровна все надежды возложила на Бога. Как истинно православная она верила - только Бог пошлет чудесное исцеление ее мальчику. Шли годы, а чуда не было, приступы повторялись - все более жестокие и страшные. Отчаяние переполняло душу матери. И вот в это время к ней привели простого сибирского мужика – "старца" Распутина. Он сказал ей: "Верь в силу моих молитв, верь в силу моего заступничества, и твой сын будет жить".
По Петербургу и Москве ползли слухи о странной связи императрицы со старцем. А как иначе объяснить его влияние на императрицу? Когда Распутин стал расставлять министров в правительстве, лопнуло терпение даже ближайшего окружения государя.
…Февраль 1917 года. Петроград уже в руках восставшего народа. В городе хаос. В ночь на 1 марта в Пскове командующий Северным фронтом генерал Рузский от имени Государственной думы и Ставки Верховного главнокомандующего потребовал от Николая Второго отречься от престола в пользу малолетнего наследника под регентством Великого князя Михаила Романова. Тогда царь попросил в свой вагон доктора Федорова. Знаменитый хирург не раз лечил наследника и спасал его от смерти. Теперь разговор с доктором должен решить все. Они говорили о том, как опасно для России остаться без самодержавной власти, он больше - о болезни царевича Алексея. Доктор не скрывал правды. Наследник неизлечимо болен. Он может умереть в любой момент, если о нем не заботиться. Убедившись в неизлечимости наследника, государь решил отказаться от престола не только за себя, но и за сына: "Я не могу при таких обстоятельствах оставить одного больного сына и расстаться с ним".
Так было принято решение, которое привело царскую семью в подвал Ипатьевского дома…
В фильме принимают участие: Николай Романов, праправнук императора Николая Второго, Глава объединения членов Дома Романовых; Сергей Мироненко, директор Государственного архива РФ; Андрей Сахаров, профессор, член-корреспондент РАН; Ольга Барковец, биограф царевича Алексея.
Сэмпл: http://multi-up.com/1012685
Тип релиза: HDTV 1080i
Контейнер: TS
Видео: AVC, 1920х1080, 16:9, 8367 Кбит/сек, 25 fps
Аудио: MPEG Audio, 224 Кбит/сек, 48 КГц, 2 канала
MediaInfo
Общее
Идентификатор : 16 (0x10)
Полное имя : Blue blood. Fall of the Empire_HD.ts
Формат : MPEG-TS
Размер файла : 2,78 Гбайт
Продолжительность : 44 м.
Режим общего битрейта : Переменный
Общий поток : 9040 Кбит/сек
Видео
Идентификатор : 1901 (0x76D)
Идентификатор меню : 901 (0x385)
Формат : AVC
Формат/Информация : Advanced Video Codec
Профиль формата : [email protected]
Параметр CABAC формата : Да
Параметр ReFrames формата : 3 кадра
Идентификатор кодека : 27
Продолжительность : 44 м.
Битрейт : 8367 Кбит/сек
Ширина : 1920 пикселей
Высота : 1080 пикселей
Соотношение сторон : 16:9
Частота кадров : 25,000 кадров/сек
Стандарт вещания : PAL
Цветовое пространство : YUV
Субдискретизация насыщенности : 4:2:0
Битовая глубина : 8 бит
Тип развёртки : Чересстрочная
Порядок развёртки : Верхнее поле первое
Бит/(Пиксели*Кадры) : 0.161
Размер потока : 2,57 Гбайт (93%)
Основные цвета : BT.709
Характеристики трансфера : BT.709
Коэффициенты матрицы : BT.709
Аудио
Идентификатор : 2901 (0xB55)
Идентификатор меню : 901 (0x385)
Формат : MPEG Audio
Версия формата : Version 1
Профиль формата : Layer 2
Идентификатор кодека : 4
Продолжительность : 44 м.
Вид битрейта : Постоянный
Битрейт : 224 Кбит/сек
Каналы : 2 канала
Частота : 48,0 КГц
Метод сжатия : С потерями
Задержка видео : 40 мс.
Размер потока : 70,6 Мбайт (2%)
Язык : std
Язык, дополнительно : Clean effects
Скриншоты
Download
Для скачивания .torrent файлов необходима регистрация
Сайт не распространяет и не хранит электронные версии произведений, а лишь предоставляет доступ к создаваемому пользователями каталогу ссылок на торрент-файлы, которые содержат только списки хеш-сумм
[Профиль]  [ЛС] 

Sirius

Top Seed 01* 40r

Стаж: 9 лет 2 месяца

Сообщений: 944

Sirius · 18-Ноя-14 23:32 (спустя 6 дней)

[Цитировать] 

Сопли-то жевать не надо было Николаю. Красные вовремя пришли к власти, и всё случилось так, как должно.
[Профиль]  [ЛС] 

fromsmallshovels

Стаж: 6 лет 11 месяцев

Сообщений: 31


fromsmallshovels · 28-Фев-15 12:54 (спустя 3 месяца 9 дней)

[Цитировать] 

А Великая Империя, созданная ещё рабами Рима, не пропала. И не пропадет - "а четвертому Риму не бывать".
[Профиль]  [ЛС] 

IMPERATOR05

Стаж: 7 лет 6 месяцев

Сообщений: 3863

IMPERATOR05 · 24-Июн-15 13:37 (спустя 3 месяца 24 дня)

[Цитировать] 

Романовы. Царское дело. Фильмы 01-05 (Из 05) [2013, Документальный, HDTV 1080i] http://rutracker.org/forum/viewtopic.php?t=4642088
[Профиль]  [ЛС] 

Aramarxll

Стаж: 4 года 4 месяца

Сообщений: 729


Aramarxll · 14-Окт-17 12:00 (спустя 2 года 3 месяца)

[Цитировать] 

Восстановите раздачу,пожалуйста...
[Профиль]  [ЛС] 
 
Ответить
Loading...
Error