Частная жизнь Тюдоров (1-3 серии из 3) / The Private Lives of the Tudors (Брюс Бюргесс / Bruce Burgeaa) [2016, Документальный, постановочный, история, исследования, HDTVRip 720p]

Страницы:  1

Ответить
Автор
Сообщение

kyba62

Top Bonus 05* 10TB

Стаж: 9 лет 7 месяцев

Сообщений: 459

kyba62 · 23-Сен-16 14:59 (1 год 2 месяца назад, ред. 23-Окт-17 19:05)

Частная жизнь Тюдоров / The Private Lives of the Tudors
Год выпуска: 2016
Страна: Великобритания
Студия: Like A Shot Entertainment
Жанр: Документальный, постановочный, история, исследован
Продолжительность: 3 x ~ 00:44:00
Перевод: Студийный (одноголосый закадровый)
Доп. инфо о переводе: SDI Media
Режиссер: Брюс Бюргесс / Bruce Burgeaa
Описание: Многие слышали о Тюдорах, но кто, на самом деле, понимает и знает, какой была их жизнь? Трэйси Борман, эксперт по Тюдорам, исследует жизнь, страсти и скандалы одной из самых известных династий в истории Британии, от основателя Тюдоров - Генриха VII, чья красавица-жена Елизавета Йоркская забеременела во время брачной церемонии, до их неудержимого сына Генриха VIII, чья скандальная жизнь прогремела на всю Европу и разделила Англию на части. Главными героями передачи являются монархи, но не менее важной темой является личная жизнь их придворных. В центре внимания - двор, где секс и власть, отношение мужчин к женщинам да и сама архитектура создали атмосферу скандалов, разгоравшихся почти каждый день. Точная и атмосферная реконструкция помогают Трэйси вновь воссоздать то, что на самом деле происходило в залах, где Тюдоры и их придворные проводили свою жизнь.

Сэмпл: https://www.sendspace.com/file/t8uyek
Тип релиза: HDTVRip 720p
Контейнер: MKV
Видео: 1280x720 (16:9), 25 fps, AVC (x264), [email protected], 3620 kbps, 25fps, 0.157 bit/pixel
Аудио: Русский 48 kHz, MPEG Layer 2, 2 ch, ~128.00 kbps avg
Аудио 2: Английский 48 kHz, MPEG Layer 2, 2 ch, ~128.00 kbps avg
Содержание
01. Генрих VIII - Расцвет династии / Henry VIII - Rise of a Dynasty
Благодаря уникальному доступу к брачному ложе Генриха VII, мы подробнее узнаем о том, как проходила церемония зачатия у Тюдоров, а также о суровых реалиях рождения ребёнка в те времена.
02. Генрих VIII - Король-тиран / Henry VIII - The Tyrant King
Сегодня мы узнаем о временах правления Генриха VIII, чем питались придворные, какую роль сыграла медицина, а также правду о смерти Джейн Сеймур.
03. Елизавета I - Золотой век / Elizabeth I - The Golden Age
Неправильное использование ртути, повлекшее за собой смерть Эдуарда VI, необъяснимая беременность королевы Марии и гниющие зубы королевы Елизаветы - всё это реалии времён правления Генриха VIII.
MediaInfo
General
Unique ID : 176125980587095032634828335924029304685 (0x8480A147A977EE0F9A12B440731E2F6D)
Complete name : F:\Наладки\Жизнь Тюдоров\1\Жизнь Тюдоров 1_720p.mkv
Format : Matroska
Format version : Version 4 / Version 2
File size : 1.19 GiB
Duration : 43mn 59s
Overall bit rate : 3 877 Kbps
Encoded date : UTC 2016-09-15 23:49:01
Writing application : mkvmerge v8.9.0 ('Father Daughter') 64bit
Writing library : libebml v1.3.3 + libmatroska v1.4.4
Video
ID : 1
Format : AVC
Format/Info : Advanced Video Codec
Format profile : [email protected]
Format settings, CABAC : Yes
Format settings, ReFrames : 8 frames
Codec ID : V_MPEG4/ISO/AVC
Duration : 43mn 59s
Bit rate : 3 620 Kbps
Width : 1 280 pixels
Height : 720 pixels
Display aspect ratio : 16:9
Frame rate mode : Constant
Frame rate : 25.000 fps
Color space : YUV
Chroma subsampling : 4:2:0
Bit depth : 8 bits
Scan type : Progressive
Bits/(Pixel*Frame) : 0.157
Stream size : 1.11 GiB (93%)
Writing library : x264 core 148 r2638 7599210
Encoding settings : cabac=1 / ref=8 / deblock=1:-3:-3 / analyse=0x3:0x133 / me=umh / subme=9 / psy=1 / psy_rd=1.00:0.00 / mixed_ref=1 / me_range=32 / chroma_me=1 / trellis=2 / 8x8dct=1 / cqm=0 / deadzone=21,11 / fast_pskip=1 / chroma_qp_offset=-2 / threads=12 / lookahead_threads=2 / sliced_threads=0 / nr=0 / decimate=0 / interlaced=0 / bluray_compat=0 / constrained_intra=0 / bframes=8 / b_pyramid=2 / b_adapt=2 / b_bias=0 / direct=3 / weightb=1 / open_gop=0 / weightp=2 / keyint=250 / keyint_min=25 / scenecut=40 / intra_refresh=0 / rc_lookahead=50 / rc=2pass / mbtree=1 / bitrate=3620 / ratetol=1.0 / qcomp=0.60 / qpmin=0 / qpmax=69 / qpstep=4 / cplxblur=20.0 / qblur=0.5 / ip_ratio=1.40 / aq=1:1.00
Language : English
Default : Yes
Forced : No
Audio #1
ID : 2
Format : MPEG Audio
Format version : Version 1
Format profile : Layer 2
Codec ID : A_MPEG/L2
Codec ID/Hint : MP2
Duration : 43mn 59s
Bit rate mode : Constant
Bit rate : 128 Kbps
Channel(s) : 2 channels
Sampling rate : 48.0 KHz
Frame rate : 41.667 fps (1152 spf)
Compression mode : Lossy
Stream size : 40.3 MiB (3%)
Language : Russian
Default : Yes
Forced : No
Audio #2
ID : 3
Format : MPEG Audio
Format version : Version 1
Format profile : Layer 2
Codec ID : A_MPEG/L2
Codec ID/Hint : MP2
Duration : 43mn 59s
Bit rate mode : Constant
Bit rate : 128 Kbps
Channel(s) : 2 channels
Sampling rate : 48.0 KHz
Frame rate : 41.667 fps (1152 spf)
Compression mode : Lossy
Stream size : 40.3 MiB (3%)
Language : English
Default : No
Forced : No
Скриншоты
Download
Для скачивания .torrent файлов необходима регистрация
Сайт не распространяет и не хранит электронные версии произведений, а лишь предоставляет доступ к создаваемому пользователями каталогу ссылок на торрент-файлы, которые содержат только списки хеш-сумм
[Профиль]  [ЛС] 

Natali_pronto

Стаж: 10 лет 6 месяцев

Сообщений: 103

Natali_pronto · 23-Окт-17 14:40 (спустя 1 год)

[Цитировать] 

Название с картинки: "The Private Lives of the Tudors".
[Профиль]  [ЛС] 

kyba62

Top Bonus 05* 10TB

Стаж: 9 лет 7 месяцев

Сообщений: 459

kyba62 · 23-Окт-17 19:06 (спустя 4 часа, ред. 23-Окт-17 19:06)

[Цитировать] 

Natali_pronto
Тут модераторы нужны в документалку.)
Добавил ссылку на imdb.
[Профиль]  [ЛС] 
 
Ответить
Loading...
Error