Снежная королева 3. Огонь и лед (Алексей Цицилин) [2016, Россия, Мультипликация, WEB-DL 1080p]

Страницы:  1

Ответить
Автор
Сообщение

Shellters-bob

RG Мультфильмы

Стаж: 11 лет 4 месяца

Сообщений: 1878

Shellters-bob · 09-Фев-17 09:14 (1 год 7 месяцев назад, ред. 09-Фев-17 14:56)

Снежная королева 3. Огонь и лед
Страна: Россия
Жанр: Мультипликация
Продолжительность: 01:29:36
Год выпуска: 2016
Перевод: Не требуется
Русские субтитры: нет
Режиссёр: Алексей Цицилин
Роли озвучивали: Наталия Быстрова, Филипп Лебедев, Диомид Виноградов, Александр Груздев, Михаил Тихонов, Николай Быстров, Ольга Шорохова, Ольга Зубкова, Всеволод Кузнецов, Филл Савенков
Описание: Редкий дар ввязываться во всевозможные неприятности — их семейная черта, да и что взять с тех, кто вырос среди снегов в компании троллей. Но повзрослев, Кай и Герда выходят на новый уровень — теперь они станут виновниками катастрофы мирового масштаба…
Качество: WEB-DL 1080p
Формат: MKV
Видео: AVC, 1920x858 (2.25:1), 24.000 fps, 4 407 Kbps (0.111 bit/pixel)
Аудио: AC-3, 48.0 KHz, 6 ch, 384 Kbps, CBR (Russian)
Субтитры: отсутствуют
Семпл: Забираем тут
Подробные технические данные
Общее
Уникальный идентификатор : 215426014377341236270245346630946027270 (0xA2118A8B5B9A78788181737664587706)
Полное имя : Снежная королева 3. Огонь и лед 2017 WEB-DL 1080p
Формат : Matroska
Версия формата : Version 2
Размер файла : 3,06 Гбайт
Продолжительность : 1 ч. 29 м.
Общий поток : 4888 Кбит/сек
Дата кодирования : UTC 2017-02-08 19:57:51
Программа кодирования : mkvmerge v8.3.0 ('Over the Horizon') 64bit
Библиотека кодирования : libebml v1.3.1 + libmatroska v1.4.2
Видео
Идентификатор : 1
Формат : AVC
Формат/Информация : Advanced Video Codec
Профиль формата : [email protected]
Параметр CABAC формата : Да
Параметр ReFrames формата : 5 кадров
Идентификатор кодека : V_MPEG4/ISO/AVC
Продолжительность : 1 ч. 29 м.
Битрейт : 4502 Кбит/сек
Ширина : 1920 пикселей
Высота : 858 пикселей
Соотношение сторон : 2,25:1
Режим частоты кадров : Постоянный
Частота кадров : 24,000 кадра/сек
Цветовое пространство : YUV
Субдискретизация насыщенности : 4:2:0
Битовая глубина : 8 бит
Тип развёртки : Прогрессивная
Бит/(Пиксели*Кадры) : 0.114
Размер потока : 2,82 Гбайт (92%)
Язык : English
Default : Да
Forced : Нет
Цветовой диапазон : Limited
Основные цвета : BT.709
Характеристики трансфера : BT.709
Коэффициенты матрицы : BT.709
Аудио
Идентификатор : 2
Формат : AC-3
Формат/Информация : Audio Coding 3
Расширение режима : CM (complete main)
Параметр Endianness формата : Big
Идентификатор кодека : A_AC3
Продолжительность : 1 ч. 29 м.
Вид битрейта : Постоянный
Битрейт : 384 Кбит/сек
Каналы : 6 каналов
Расположение каналов : Front: L C R, Side: L R, LFE
Частота : 48,0 КГц
Частота кадров : 31,250 кадров/сек (1536 spf)
Метод сжатия : С потерями
Размер потока : 246 Мбайт (8%)
Язык : Russian
Default : Да
Forced : Нет
Меню
00:00:00.000 : en:Глава 1
00:06:44.041 : en:Глава 2
00:11:16.541 : en:Глава 3
00:16:12.249 : en:Глава 4
00:21:27.124 : en:Глава 5
00:27:46.415 : en:Глава 6
00:32:54.623 : en:Глава 7
00:40:25.998 : en:Глава 8
00:47:11.206 : en:Глава 9
00:52:10.789 : en:Глава 10
00:59:06.247 : en:Глава 11
01:06:00.747 : en:Глава 12
01:12:48.872 : en:Глава 13
01:19:46.372 : en:Глава 14
Скриншоты
Download
Для скачивания .torrent файлов необходима регистрация
Сайт не распространяет и не хранит электронные версии произведений, а лишь предоставляет доступ к создаваемому пользователями каталогу ссылок на торрент-файлы, которые содержат только списки хеш-сумм
[Профиль]  [ЛС] 

Dmitrad

Стаж: 8 лет 6 месяцев

Сообщений: 20


Dmitrad · 09-Фев-17 22:41 (спустя 13 часов)

[Цитировать] 

а чё такой бедный звук?
[Профиль]  [ЛС] 

uchiha kira

Стаж: 8 лет 7 месяцев

Сообщений: 204

uchiha kira · 11-Фев-17 16:35 (спустя 1 день 17 часов)

[Цитировать] 

Dmitrad
потому что он теперь "в моде", все последние видео в нем и снимаются. Убожество...
[Профиль]  [ЛС] 

zapparello

Стаж: 11 месяцев

Сообщений: 10

zapparello · 02-Янв-18 17:34 (спустя 10 месяцев)

[Цитировать] 

Вполне приличный мульт. Можно посмотреть всей семьёй в канун/после НГ, например
На один раз нормально.
[Профиль]  [ЛС] 
 
Ответить
Loading...
Error