Три богатыря и принцесса Египта (Константин Феоктистов) [2017, Россия, мультфильм, приключения, семейный, WEB-DL 1080p]

Страницы:  1

Ответить
Автор
Сообщение

Pigy

RG Русские сериалы

Стаж: 10 лет 1 месяц

Сообщений: 3805

Pigy · 30-Янв-18 00:58 (10 месяцев назад, ред. 30-Янв-18 01:13)

Три богатыря и принцесса Египта
Страна: Россия
Жанр: мультфильм, приключения, семейный
Продолжительность: 01:08:43
Год выпуска: 2017
Перевод: Не требуется
Субтитры: нет
Режиссер: Константин Феоктистов
Роли озвучивали: Олег Куликович, Валерий Соловьёв, Дмитрий Быковский-Ромашов, Сергей Маковецкий, Дмитрий Высоцкий, Александр Быковский, Елена Шульман, Лия Медведева, Мария Цветкова-Овсянникова, Анатолий Петров

Описание: В новогоднюю ночь, в то время, как Князь готовится произнести торжественную речь, а Юлий распаковывает подарки и следит за приготовлением праздничного стола, богатыри едут в гости к Алеше, и встречают там странного товарища по имени Дурило. Оказывается, это тринадцатый месяц, который никому особенно не нужен, и который пытается осуществить свое заветное желание — стать самым главным месяцем в году. Только и надо ему, что притвориться Дедом Морозом, показать доверчивому Алеше пару фокусов, подружиться с богатырями и оказаться в Египте — стране фараонов и древних пирамид. А дальше — пирамиды, заклинание, Древний огонь — и дело в шляпе! Но не так-то просто осуществить свое коварное желание, когда на пути у тебя встают не только три богатыри, но и их жены, Князь и Юлий, Змей Горыныч и Дед Мороз и даже — сама принцесса Нефертити!

Sample
Качество: WEB-DL 1080p - iTunes
Формат: MKV
Видео: MPEG4 AVC Video, H264, 16:9, 1920x1080, 25 fps, 5003 kbps, 0.097 bit/pixel
Аудио: Russian (AC3, 6 ch, 384 kbps, 16 bits, 48.0 KHz)
Подробные технические данные
[pre]General
Unique ID : 225515769129118825951745927917846518006 (0xA9A8C1DC6DCFADCDB0247C9BDF65D8F6)
Complete name : D:\Три богатыря и принцесса Египта 2017 WEB-DL 1080p.mkv
Format : Matroska
Format version : Version 2
File size : 2.64 GiB
Duration : 1h 8mn
Overall bit rate : 5 496 Kbps
Encoded date : UTC 2018-01-29 19:08:05
Writing application : mkvmerge v8.3.0 ('Over the Horizon') 64bit
Writing library : libebml v1.3.1 + libmatroska v1.4.2
DURATION : 01:08:43.040000000
NUMBER_OF_FRAMES : 128845
NUMBER_OF_BYTES : 197905920
_STATISTICS_WRITING_APP : mkvmerge v8.3.0 ('Over the Horizon') 64bit
_STATISTICS_WRITING_DATE_UTC : 2018-01-29 19:08:05
_STATISTICS_TAGS : BPS DURATION NUMBER_OF_FRAMES NUMBER_OF_BYTES
Video
ID : 1
Format : AVC
Format/Info : Advanced Video Codec
Format profile : [email protected]
Format settings, CABAC : Yes
Format settings, ReFrames : 4 frames
Codec ID : V_MPEG4/ISO/AVC
Duration : 1h 8mn
Bit rate : 5 003 Kbps
Width : 1 920 pixels
Height : 1 080 pixels
Display aspect ratio : 16:9
Frame rate mode : Constant
Frame rate : 25.000 fps
Color space : YUV
Chroma subsampling : 4:2:0
Bit depth : 8 bits
Scan type : Progressive
Bits/(Pixel*Frame) : 0.097
Stream size : 2.40 GiB (91%)
Language : English
Default : Yes
Forced : No
Color primaries : BT.709
Transfer characteristics : BT.709
Matrix coefficients : BT.709
Audio
ID : 2
Format : AC-3
Format/Info : Audio Coding 3
Mode extension : CM (complete main)
Format settings, Endianness : Big
Codec ID : A_AC3
Duration : 1h 8mn
Bit rate mode : Constant
Bit rate : 384 Kbps
Channel count : 6 channels
Channel positions : Front: L C R, Side: L R, LFE
Sampling rate : 48.0 KHz
Bit depth : 16 bits
Compression mode : Lossy
Stream size : 189 MiB (7%)
Language : Russian
Default : Yes
Forced : No
Menu
00:00:00.000 : en:Глава 1
00:07:28.280 : en:Глава 2
00:12:39.720 : en:Глава 3
00:17:31.400 : en:Глава 4
00:23:15.800 : en:Глава 5
00:28:30.840 : en:Глава 6
00:32:41.920 : en:Глава 7
00:37:37.520 : en:Глава 8
00:42:24.320 : en:Глава 9
00:46:54.720 : en:Глава 10
00:51:00.120 : en:Глава 11
00:55:35.760 : en:Глава 12
00:59:06.800 : en:Глава 13
Скриншоты
Download
Для скачивания .torrent файлов необходима регистрация
Сайт не распространяет и не хранит электронные версии произведений, а лишь предоставляет доступ к создаваемому пользователями каталогу ссылок на торрент-файлы, которые содержат только списки хеш-сумм
[Профиль]  [ЛС] 

v_ca

Стаж: 9 лет 2 месяца

Сообщений: 72

v_ca · 31-Янв-18 23:21 (спустя 1 день 22 часа)

[Цитировать] 

Есть с переводом на английском? Или хотя бы субтитры?
[Профиль]  [ЛС] 

ashdinalt

Стаж: 9 лет 5 месяцев

Сообщений: 7


ashdinalt · 01-Фев-18 20:55 (спустя 21 час)

[Цитировать] 

Мда... А принцессы Египта там аж целых 2 минуты экранного времени...
Уж лучше б назвали - Три Богатыря и Новый Год, или что-то типа...
[Профиль]  [ЛС] 

tcherepova

Стаж: 9 лет 3 месяца

Сообщений: 27

tcherepova · 03-Фев-18 19:04 (спустя 1 день 22 часа)

[Цитировать] 

Что это было?
Это было фиаско!
Час времени, никакой логики в сюжете, набор банальных шуток про оливье, заливную рыбу и силушку богатырскую.
[Профиль]  [ЛС] 

ilya.druker

Стаж: 9 лет 7 месяцев

Сообщений: 8


ilya.druker · 04-Фев-18 03:32 (спустя 8 часов)

[Цитировать] 

tcherepova писал(а):
74729202Что это было?
Кризис жанра. Спасибо за все предыдущие серии, но это - фуфло без сюжета, без аллегорий, без искрометных диалогов
[Профиль]  [ЛС] 

KypkyLb

Стаж: 8 лет 11 месяцев

Сообщений: 22


KypkyLb · 08-Фев-18 19:50 (спустя 4 дня)

[Цитировать] 

От росиюшки весь цивилизованный мир отвернулся, дружат теперь только с племенами тумба юмба, про них мультики и снимают
[Профиль]  [ЛС] 

NLU

Стаж: 11 лет 8 месяцев

Сообщений: 60

NLU · 09-Фев-18 00:40 (спустя 4 часа)

[Цитировать] 

От скакания мозг атрофировался. Зачем политику тащить в раздел детских мультиков? Что это было?
KypkyLb писал(а):
74760605От росиюшки весь цивилизованный ми
[Профиль]  [ЛС] 

[email protected]_

Стаж: 8 лет

Сообщений: 57

[email protected]_ · 09-Фев-18 11:21 (спустя 10 часов)

[Цитировать] 

Сюжет прост, 13 месяц это выдумать надо. Музыкальные композиции порадовали динамичные, они больше всего и запомнились новогоднее настроение передано и зима показана. На разок можно 5/10.
[Профиль]  [ЛС] 

TheDeadOne

Колония прокаженных

Стаж: 10 лет 6 месяцев

Сообщений: 29

TheDeadOne · 22-Фев-18 21:58 (спустя 13 дней)

[Цитировать] 

Каждая часть становится немного хуже предыдущей. Но это рухнула сразу на порядок.
[Профиль]  [ЛС] 

DonSerjio

Top Bonus 04* 3TB

Стаж: 10 лет

Сообщений: 4231

DonSerjio · 13-Мар-18 20:16 (спустя 18 дней)

[Цитировать] 

Такая же ерунда, как и "Морской царь". Считаю, после "Шамаханской царицы" надо было сразу закругляться. Серия себя давно изжила. Пора уже Мельнице переключиться на что-то еще. "Крепость" была неплоха.
За труды релизеру спасибо.
[Профиль]  [ЛС] 

Ktulhoo

Стаж: 9 лет 2 месяца

Сообщений: 597

Ktulhoo · 19-Апр-18 22:37 (спустя 1 месяц 6 дней)

[Цитировать] 

Дно достигнуто, в принципе. Хотя может следующей частью они опустят планку еще ниже.
[Профиль]  [ЛС] 

ArinaEgo

Стаж: 3 года 11 месяцев

Сообщений: 25

ArinaEgo · 26-Май-18 10:14 (спустя 1 месяц 6 дней)

[Цитировать] 

Там мозга никогда и не было, одна зависть и ненависть, впитанная с молоком матери.
NLU писал(а):
74762122От скакания мозг атрофировался. Зачем политику тащить в раздел детских мультиков? Что это было?
KypkyLb писал(а):
74760605От росиюшки весь цивилизованный ми
[Профиль]  [ЛС] 
 
Ответить
Loading...
Error