Цапля и журавль (Юрий Норштейн) [1974, СССР, мультфильм, BDRip 1080p] Original rus + eng sub

Страницы:  1

Ответить
Автор
Сообщение

xfiles

RG Мультфильмы

Стаж: 10 лет 7 месяцев

Сообщений: 41365

xfiles · 06-Фев-18 22:15 (4 месяца 16 дней назад, ред. 12-Фев-18 12:13)

Цапля и журавль
Страна: СССР
Студия: Союзмультфильм
Жанр: мультфильм
Год выпуска: 1974
Продолжительность: 0:10:14
Режиссер: Юрий Норштейн
Роли озвучивали: Иннокентий Смоктуновский
Описание: Что это за фильм «Журавль и Цапля»! Печальный, нежный, смешной, с дождями — старый парк, серебряное небо, туманы, далекая музыка и два одиноких существа, последние аристократы этих мест, среди колонн разрушенной беседки. Там царствует робкая, гордая любовь. Обедневшие изгнанники, ни кола ни двора, имущества нет, только руины. Один зонтик на всю вселенную, какая-то полуцелая шляпка, бусы из рябины. Нелепые, породистые носы. Вздорные характеры. И эта нежная, прощальная музыка о любви, которой нельзя сбыться… Великий фильм о любви, когда зритель всей душой жаждет финального поцелуя, но его никогда не будет.
Релиз: | Семпл: http://sendfile.su/1398365
Тип релиза: BDRip 1080p
Контейнер: MKV
Видео: 1480x1080 (1.37:1), 23.976 fps, AVC, 23355 kbps
Аудио #1: Русский, 48.0 KHz, AC3, 1 ch, 224 kbps - Mono | Jap Blu-ray
Аудио #2: Русский, 96.0 KHz, FLAC, 1 ch, 24 bit, 1109 kbps - Mono | Jap Blu-ray
Аудио #3: Русский, 48.0 KHz, AC3, 1 ch, 224 kbps - Mono | DVD "Крупный план"
Аудио #4: Русский, 48.0 KHz, AC3, 6 ch, 448 kbps - 5.1 Surround | DVD "Крупный план"
Субтитры: English, UTF-8 (SRT)
MediaInfo
General
Unique ID : 197295544106407209275875355574933790207 (0x946DBD585150CDF458C8CD6A88221DFF)
Complete name : Цапля.и.журавль.1975.BDRip.1080p-RUTRACKER.mkv
Format : Matroska
Format version : Version 4 / Version 2
File size : 1.81 GiB
Duration : 10 min 14 s
Overall bit rate mode : Variable
Overall bit rate : 25.3 Mb/s
Encoded date : UTC 2018-02-06 18:03:36
Writing application : mkvmerge v20.0.0 ('I Am The Sun') 64-bit
Writing library : libebml v1.3.5 + libmatroska v1.4.8
Video
ID : 1
Format : AVC
Format/Info : Advanced Video Codec
Format profile : [email protected]
Format settings : CABAC / 5 Ref Frames
Format settings, CABAC : Yes
Format settings, RefFrames : 5 frames
Codec ID : V_MPEG4/ISO/AVC
Duration : 10 min 14 s
Bit rate : 23.4 Mb/s
Width : 1 480 pixels
Height : 1 080 pixels
Display aspect ratio : 1.370
Frame rate mode : Constant
Frame rate : 23.976 (24000/1001) FPS
Color space : YUV
Chroma subsampling : 4:2:0
Bit depth : 8 bits
Scan type : Progressive
Bits/(Pixel*Frame) : 0.609
Stream size : 1.67 GiB (92%)
Writing library : x264 core 152 r2851kMod ba24899
Encoding settings : cabac=1 / ref=5 / deblock=1:-3:-2 / analyse=0x3:0x133 / me=umh / subme=11 / psy=1 / fade_compensate=0.00 / psy_rd=1.00:0.00 / mixed_ref=1 / me_range=48 / chroma_me=1 / trellis=2 / 8x8dct=1 / cqm=0 / deadzone=21,11 / fast_pskip=0 / chroma_qp_offset=-2 / threads=12 / lookahead_threads=3 / sliced_threads=0 / nr=0 / decimate=1 / interlaced=0 / bluray_compat=0 / constrained_intra=0 / bframes=10 / b_pyramid=2 / b_adapt=2 / b_bias=0 / direct=3 / weightb=1 / open_gop=0 / weightp=2 / keyint=250 / keyint_min=23 / scenecut=40 / intra_refresh=0 / rc_lookahead=70 / rc=crf / mbtree=0 / crf=17.5000 / qcomp=0.60 / qpmin=0 / qpmax=69 / qpstep=4 / vbv_maxrate=50000 / vbv_bufsize=62500 / crf_max=0.0 / nal_hrd=none / filler=0 / ip_ratio=1.40 / pb_ratio=1.30 / aq=3:0.75
Default : Yes
Forced : No
Color range : Limited
Color primaries : BT.709
Transfer characteristics : BT.709
Matrix coefficients : BT.709
Audio #1
ID : 2
Format : AC-3
Format/Info : Audio Coding 3
Format settings, Endianness : Big
Codec ID : A_AC3
Duration : 10 min 14 s
Bit rate mode : Constant
Bit rate : 224 kb/s
Channel(s) : 1 channel
Channel positions : Front: C
Sampling rate : 48.0 kHz
Frame rate : 31.250 FPS (1536 SPF)
Bit depth : 16 bits
Compression mode : Lossy
Stream size : 16.4 MiB (1%)
Title : Mono | Jap Blu-ray
Language : Russian
Service kind : Complete Main
Default : Yes
Forced : No
Audio #2
ID : 3
Format : FLAC
Format/Info : Free Lossless Audio Codec
Codec ID : A_FLAC
Duration : 10 min 14 s
Bit rate mode : Variable
Bit rate : 1 020 kb/s
Channel(s) : 1 channel
Sampling rate : 96.0 kHz
Frame rate : 23.439 FPS (4096 SPF)
Bit depth : 24 bits
Stream size : 74.7 MiB (4%)
Title : Mono | Jap Blu-ray
Writing library : libFLAC 1.2.1 (UTC 2007-09-17)
Language : Russian
Default : No
Forced : No
Audio #3
ID : 4
Format : AC-3
Format/Info : Audio Coding 3
Format settings, Endianness : Big
Codec ID : A_AC3
Duration : 10 min 14 s
Bit rate mode : Constant
Bit rate : 224 kb/s
Channel(s) : 1 channel
Channel positions : Front: C
Sampling rate : 48.0 kHz
Frame rate : 31.250 FPS (1536 SPF)
Bit depth : 16 bits
Compression mode : Lossy
Stream size : 16.4 MiB (1%)
Title : Mono | DVD "Крупный план"
Language : Russian
Service kind : Complete Main
Default : No
Forced : No
Audio #4
ID : 5
Format : AC-3
Format/Info : Audio Coding 3
Format settings, Endianness : Big
Codec ID : A_AC3
Duration : 10 min 14 s
Bit rate mode : Constant
Bit rate : 448 kb/s
Channel(s) : 6 channels
Channel positions : Front: L C R, Side: L R, LFE
Sampling rate : 48.0 kHz
Frame rate : 31.250 FPS (1536 SPF)
Bit depth : 16 bits
Compression mode : Lossy
Stream size : 32.8 MiB (2%)
Title : 5.1 Surround | DVD "Крупный план"
Language : Russian
Service kind : Complete Main
Default : No
Forced : No
Text
ID : 6
Format : UTF-8
Codec ID : S_TEXT/UTF8
Codec ID/Info : UTF-8 Plain Text
Duration : 9 min 29 s
Bit rate : 22 b/s
Count of elements : 47
Stream size : 1.58 KiB (0%)
Language : English
Default : No
Forced : No
Скриншоты
Download
Для скачивания .torrent файлов необходима регистрация
Сайт не распространяет и не хранит электронные версии произведений, а лишь предоставляет доступ к создаваемому пользователями каталогу ссылок на торрент-файлы, которые содержат только списки хеш-сумм
[Профиль]  [ЛС] 

bot · 12-Фев-18 12:04 (спустя 5 дней)

Тема была перенесена из форума RG Мультфильмы (Оформление раздач) в форум Отечественные мультфильмы (HD Video)
xfiles
 
 
Ответить
Loading...
Error