Мир Дикого запада / Westworld / Сезон: 2 / Серии: 1 из 10 (Ричард Дж. Льюис, Винченцо Натали, Джонатан Нолан) [2018, США, Драма, Фантастика, Вестерн, HDTV 1080p] Dub Кравец (Amedia) + Original + Sub (rus)

Страницы:  1

Тема закрыта
Автор
Сообщение

Wentworth_Miller

Помощник модератора

Стаж: 9 лет 5 месяцев

Сообщений: 4824

Wentworth_Miller · 25-Апр-18 13:56 (3 месяца 25 дней назад, ред. 26-Апр-18 12:24)

[Цитировать] 

Мир Дикого запада / Westworld
Год выпуска: 2018
Страна: США
Жанр: Драма, Фантастика, Вестерн
Продолжительность: ~01:00:00
Перевод: Профессиональный (дублированный) | Кравец (Amedia)
Режиссёр: Ричард Дж. Льюис, Винченцо Натали, Джонатан Нолан
В ролях: Эван Рэйчел Вуд, Тэнди Ньютон, Джеффри Райт, Джеймс Марсден, Эд Харрис, Талула Райли, Энтони Хопкинс, Эрик Шэкелфорд, Дэниэл ТуФизерс, Люк Хемсворт
Описание: В футуристическом парке развлечений "Мир Дикого Запада" специально сконструированные андроиды выполняют любые прихоти посетителей, чтобы те чувствовали безнаказанность и полную свободу действий. Если робота убили - не беда, техники его починят, сотрут память и снова поставят в строй, навстречу новому дню и новым людским прихотям. Но оказывается, что далеко не все роботы теряют воспоминания.
Ссылка на предыдущие и альтернативные раздачи

karabas
Качество: HDTV 1080p
Контейнер: MKV
Видео: 1920x1080, 25.000 fps, MPEG-4 AVC, ~8000 kbps avg
Аудио Rus: 48 kHz, AC3, 3/2 (L,C,R,l,r) + LFE ch, ~640.00 kbps | Кравец (Amedia)
Аудио Eng: 48.0 kHz, AAC, 2/0 (L,R) ch, ~256.00 kbps
Субтитры: Русские
Реклама: Отсутствует
Список серий
01. Journey Into Night / Путешествие в ночь

MediaInfo
Общее
Уникальный идентификатор : 270455364335307580304971156509996474985 (0xCB77CEF880BBFFB007C552BB23E5E269)
Полное имя : E:\Westworld 2x01 Journey into Night.mkv
Формат : Matroska
Версия формата : Version 4 / Version 2
Размер файла : 4,10 Гбайт
Продолжительность : 1 ч. 6 м.
Общий поток : 8794 Кбит/сек
Дата кодирования : UTC 2018-04-25 08:28:41
Программа кодирования : mkvmerge v22.0.0 ('At The End Of The World') 64-bit
Библиотека кодирования : libebml v1.3.5 + libmatroska v1.4.8
Видео
Идентификатор : 1
Формат : AVC
Формат/Информация : Advanced Video Codec
Профиль формата : [email protected]
Настройки формата : CABAC / 1 Ref Frames
Параметр CABAC формата : Да
Параметр RefFrames формата : 1 кадр
Параметр GOP формата : M=1, N=50
Идентификатор кодека : V_MPEG4/ISO/AVC
Продолжительность : 1 ч. 6 м.
Битрейт : 7989 Кбит/сек
Ширина : 1920 пикселей
Высота : 1080 пикселей
Соотношение сторон : 16:9
Режим частоты кадров : Постоянный
Частота кадров : 25,000 кадров/сек
Цветовое пространство : YUV
Субдискретизация насыщенности : 4:2:0
Битовая глубина : 8 бит
Тип развёртки : Прогрессивная
Бит/(Пиксели*Кадры) : 0.154
Размер потока : 3,73 Гбайт (91%)
Язык : Russian
Default : Да
Forced : Нет
Цветовой диапазон : Limited
Аудио #1
Идентификатор : 2
Формат : AC-3
Формат/Информация : Audio Coding 3
Идентификатор кодека : A_AC3
Продолжительность : 1 ч. 6 м.
Вид битрейта : Постоянный
Битрейт : 640 Кбит/сек
Каналы : 6 каналов
Расположение каналов : Front: L C R, Side: L R, LFE
Частота : 48,0 КГц
Частота кадров : 31,250 кадров/сек (1536 SPF)
Битовая глубина : 16 бит
Метод сжатия : С потерями
Размер потока : 306 Мбайт (7%)
Язык : Russian
ServiceKind/String : Complete Main
Default : Да
Forced : Нет
Аудио #2
Идентификатор : 3
Формат : AAC
Формат/Информация : Advanced Audio Codec
Профиль формата : LC
Идентификатор кодека : A_AAC-2
Продолжительность : 1 ч. 6 м.
Битрейт : 162 Кбит/сек
Каналы : 2 канала
Расположение каналов : Front: L R
Частота : 48,0 КГц
Частота кадров : 46,875 кадров/сек (1024 SPF)
Метод сжатия : С потерями
Размер потока : 77,5 Мбайт (2%)
Язык : English
Default : Нет
Forced : Нет
Текст
Идентификатор : 4
Формат : UTF-8
Идентификатор кодека : S_TEXT/UTF8
Идентификатор кодека/Информация : UTF-8 Plain Text
Продолжительность : 1 ч. 3 м.
Битрейт : 52 бит/сек
ElementCount : 605
Размер потока : 24,4 Кбайт (0%)
Язык : Russian
Default : Нет
Forced : Нет

Скриншоты

Внимание! Раздача ведётся путём добавления новых серий
Внимание! Раздача ведётся путём добавления новых серий; при каждом добавлении создаётся новый торрент. Чтобы начать докачку новой серии, пользователям необходимо сделать следующее:
(1) остановить скачивание,
(2) удалить старый торрент у себя из клиента (старые серии удалять не надо),
(3) скачать новый торрент и запустить его у себя в клиенте вместо старого, при этом указать клиенту путь в старую папку куда и должно происходить скачивание новых серий.
Ваш клиент при этом должен произвести хеширование (проверку) старой папки (если не производит сам - помогите ему сделать это), и будет докачивать только те серии которых у вас ещё нет. Старые серии при этом не удаляются, а продолжают раздаваться!
Eсли вы уже удалили старые серии, то предотвратить повторную закачку старых серий можно, отжав галочку в соответствующих местах при запуске нового торрента. По возможности, желательно не удалять старые серии как можно дольше чтобы релизёр не столько продолжал раздавать старые серии, а смог сконцентрироваться на новых.
[Профиль]  [ЛС] 

makakass

Top User 06

Стаж: 11 лет 10 месяцев

Сообщений: 24

makakass · 25-Апр-18 21:19 (спустя 7 часов)

[Цитировать] 

Подписка
[Профиль]  [ЛС] 

c1a

Стаж: 9 лет 9 месяцев

Сообщений: 38

c1a · 26-Апр-18 02:42 (спустя 5 часов)

[Цитировать] 

новые серии в эту же раздачу будут добавляться?
[Профиль]  [ЛС] 

Wentworth_Miller

Помощник модератора

Стаж: 9 лет 5 месяцев

Сообщений: 4824

Wentworth_Miller · 26-Апр-18 12:23 (спустя 9 часов)

[Цитировать] 

c1a писал(а):
75245619новые серии в эту же раздачу будут добавляться?
да
[Профиль]  [ЛС] 

Dmitry PD

Стаж: 4 года

Сообщений: 239


Dmitry PD · 26-Апр-18 23:52 (спустя 11 часов)

[Цитировать] 

Как впечатления? Стоит смотреть?
[Профиль]  [ЛС] 

qqss44

Moderator gray

Стаж: 9 лет

Сообщений: 5416

qqss44 · 27-Апр-18 14:05 (спустя 14 часов)

[Цитировать] 

https://radikal.ru/lfp/a.radikal.ru/a32/1804/6b/ee69353a0147.png/htm хдтв
https://radikal.ru/lfp/d.radikal.ru/d35/1804/41/5c7de360d809.png/htm вебдл
http://rutracker.org/forum/viewtopic.php?t=5554112
[Профиль]  [ЛС] 

bot · 01-Май-18 15:47 (спустя 4 дня)

Тема была перенесена из форума Зарубежные сериалы (HD Video) в форум Архив Зарубежные сериалы (HD Video)
qqss44
 
 
Тема закрыта
Loading...
Error