[Сказки] Козлов Сергей, Доктор Сьюз - Сказки про Африку [О.Анофриев, И.Ильинский, Г.Вицин, Р.Плятт, 1996 г., lossless, FLAC]

Страницы:  1

Ответить
Автор
Сообщение

pretenders

Moderator

Стаж: 9 лет 11 месяцев

Сообщений: 4020

pretenders · 31-Янв-12 00:10 (6 лет 6 месяцев назад, ред. 02-Фев-12 22:06)

Сказки про Африку
Год выпуска: 1996 г.
Авторы: Козлов Сергей, Доктор Сьюз
Жанр: сказки
Издательство: Extraphone
Номер по каталогу: ExD 96010
Тип аудиокниги: аудиоспектакль
Тип рипа: tracks+.cue
Источник: CD
Аудио кодек: FLAC
Битрейт аудио: lossless
Время звучания: 00:38:48
Описание:
Сергей Козлов.
01. Кролик Ки-Ку
Кролик Ки-Ку - Маргарита Корабельникова, Жираф - Георгий Вицин
02. Страшный зверь
Бегемот - Василий Ливанов, Бегемотик - Маргарита Корабельникова
03. Как Львенок и Черепаха пели песню
Львено, Черепаха - Олег Анофриев, Ведущий - Ростислав Плятт
Музыка Г. Гладкова, Инструментальный ансамбль п/у Б.Демченко
Звукорежиссер В. Антоненко, запись 1979 г.
Доктор Сьюз, перевод Т. Макаровой.
04. Слон Хортон высиживает яйцо
05. Черепаха Эртель
Читает Игорь Ильинский
Звукорежиссер А. Штильман, запись 1969 г.
Доп. информация:
MP3 (320) - http://rutracker.org/forum/viewtopic.php?t=3925100
Сказки про Африку (МЗ3, 128) - http://rutracker.org/forum/viewtopic.php?t=2236433
Черепаха Эртель, Слон Хортон высиживает яйцо (MP3, 64) - http://rutracker.org/forum/viewtopic.php?t=1144944
Я на солнышке лежу (MP3, 128) - http://rutracker.org/forum/viewtopic.php?t=1560198
Лог создания рипа
Exact Audio Copy V1.0 beta 3 from 29. August 2011
Отчёт EAC об извлечении, выполненном 30. января 2012, 23:41
Various Artists / Сказки про Африку
Дисковод: Optiarc DVD RW AD-5240S Adapter: 3 ID: 1
Режим чтения : Достоверность
Использование точного потока : Да
Отключение кэша аудио : Да
Использование указателей C2 : Нет
Коррекция смещения при чтении : 48
Способность читать области Lead-in и Lead-out : Нет
Заполнение пропущенных сэмплов тишиной : Да
Удаление блоков с тишиной в начале и конце : Нет
При вычислениях CRC использовались нулевые сэмплы : Да
Интерфейс : Встроенный Win32-интерфейс для Win NT/2000
Обработка зазоров : Добавлено к предыдущему треку
Выходной формат : Пользовательский кодировщик
Выбранный битрейт : 768 kBit/s
Качество : Высокий
Добавление ID3-тега : Нет
Утилита сжатия : C:\Program Files\Exact Audio Copy\FLAC\FLAC.EXE
Дополнительные параметры : -6 -V -T "ARTIST=%artist%" -T "TITLE=%title%" -T "ALBUM=%albumtitle%" -T "DATE=%year%" -T "TRACKNUMBER=%tracknr%" -T "GENRE=%genre%" -T "COMMENT=%comment%" -T "BAND=%albuminterpret%" -T "ALBUMARTIST=%albuminterpret%" -T "COMPOSER=%composer%" %haslyrics%--tag-from-file=LYRICS="%lyricsfile%"%haslyrics% -T "DISCNUMBER=%cdnumber%" -T "TOTALDISCS=%totalcds%" -T "TOTALTRACKS=%numtracks%" %hascover%--picture="%coverfile%"%hascover% %source% -o %dest%
TOC извлечённого CD
Трек | Старт | Длительность | Начальный сектор | Конечный сектор
---------------------------------------------------------------------
1 | 0:00.00 | 7:59.49 | 0 | 35973
2 | 7:59.49 | 5:12.67 | 35974 | 59440
3 | 13:12.41 | 8:47.04 | 59441 | 98969
4 | 21:59.45 | 10:09.47 | 98970 | 144691
5 | 32:09.17 | 6:37.41 | 144692 | 174507
Трек 1
Имя файла L:\Новая папка\01. М. Корабельникова, Г. Вицин - Кролик Ки-Ку.wav
Длина предзазора 0:00:02.00
Пиковый уровень 74.9 %
Скорость извлечения 2.6 X
Качество трека 100.0 %
CRC теста 994BDFDD
CRC копии 994BDFDD
Трек не обнаружен в базе AccurateRip
Копирование... OK
Трек 2
Имя файла L:\Новая папка\02. М. Корабельникова, В. Ливанов - Страшный зверь.wav
Длина предзазора 0:00:01.74
Пиковый уровень 72.3 %
Скорость извлечения 2.9 X
Качество трека 100.0 %
CRC теста 2A2CBE5B
CRC копии 2A2CBE5B
Трек не обнаружен в базе AccurateRip
Копирование... OK
Трек 3
Имя файла L:\Новая папка\03. О. Анофриев, Р. Плятт - Как Львенок и Черепаха пели песню.wav
Длина предзазора 0:00:01.74
Пиковый уровень 70.9 %
Скорость извлечения 3.5 X
Качество трека 100.0 %
CRC теста 6F9BFD9A
CRC копии 6F9BFD9A
Трек не обнаружен в базе AccurateRip
Копирование... OK
Трек 4
Имя файла L:\Новая папка\04. Игорь Ильинский - Слон Хортон высиживает яйцо.wav
Длина предзазора 0:00:01.74
Пиковый уровень 84.2 %
Скорость извлечения 4.0 X
Качество трека 100.0 %
CRC теста 7B5B3A50
CRC копии 7B5B3A50
Трек не обнаружен в базе AccurateRip
Копирование... OK
Трек 5
Имя файла L:\Новая папка\05. Игорь Ильинский - Черепаха Эртель.wav
Длина предзазора 0:00:01.74
Пиковый уровень 94.5 %
Скорость извлечения 4.2 X
Качество трека 100.0 %
CRC теста 57DFB25B
CRC копии 57DFB25B
Трек не обнаружен в базе AccurateRip
Копирование... OK
Ни одного трека нет в базе AccurateRip
Ошибок не произошло
Конец отчёта
==== Контрольная сумма отчёта 92E5F5292606DB407539BD7A53B6A3A1AFAA3B7647F6B4D82D934456479FC9FD ====
Содержание индексной карты (.CUE)
REM DISCID 38091605
REM COMMENT "ExactAudioCopy v1.0b3"
CATALOG 0000000000000
PERFORMER "Various Artists"
TITLE "Сказки про Африку"
FILE "01. М. Корабельникова, Г. Вицин - Кролик Ки-Ку.wav" WAVE
TRACK 01 AUDIO
TITLE "Кролик Ки-Ку"
PERFORMER "М. Корабельникова, Г. Вицин"
INDEX 01 00:00:00
TRACK 02 AUDIO
TITLE "Страшный зверь"
PERFORMER "М. Корабельникова, В. Ливанов"
INDEX 00 07:57:50
FILE "02. М. Корабельникова, В. Ливанов - Страшный зверь.wav" WAVE
INDEX 01 00:00:00
TRACK 03 AUDIO
TITLE "Как Львенок и Черепаха пели песню"
PERFORMER "О. Анофриев, Р. Плятт"
INDEX 00 05:10:68
FILE "03. О. Анофриев, Р. Плятт - Как Львенок и Черепаха пели песню.wav" WAVE
INDEX 01 00:00:00
TRACK 04 AUDIO
TITLE "Слон Хортон высиживает яйцо"
PERFORMER "Игорь Ильинский"
INDEX 00 08:45:05
FILE "04. Игорь Ильинский - Слон Хортон высиживает яйцо.wav" WAVE
INDEX 01 00:00:00
TRACK 05 AUDIO
TITLE "Черепаха Эртель"
PERFORMER "Игорь Ильинский"
INDEX 00 10:07:48
FILE "05. Игорь Ильинский - Черепаха Эртель.wav" WAVE
INDEX 01 00:00:00
Download
Для скачивания .torrent файлов необходима регистрация
Сайт не распространяет и не хранит электронные версии произведений, а лишь предоставляет доступ к создаваемому пользователями каталогу ссылок на торрент-файлы, которые содержат только списки хеш-сумм
[Профиль]  [ЛС] 

Юрий8951

Стаж: 3 года 11 месяцев

Сообщений: 9


Юрий8951 · 26-Май-18 18:40 (спустя 6 лет 3 месяца)

[Цитировать] 

отличный рип! У меня имеется лицензионная аудиокассета с этими сказками))
[Профиль]  [ЛС] 
 
Ответить
Loading...
Error