Этот фантастический мир. Выпуск 14. Умение кидать мяч (Виктор Спиридонов) [1988, СССР, фантастика, телеспектакль, DVB]

Страницы:  1

Ответить
Автор
Сообщение

psicho

Top Seed 03* 160r

Стаж: 10 лет 11 месяцев

Сообщений: 1546

psicho · 18-Июн-15 18:43 (3 года назад, ред. 20-Июн-15 17:24)

Этот фантастический мир. Выпуск 14. Умение кидать мяч
Страна: СССР
Жанр: фантастика, телеспектакль
Год выпуска: 1988
Продолжительность: 01:30:17
Режиссёр: Виктор Спиридонов
В ролях:
Александр Пороховщиков — учёный
Владимир Сальников — Герман Коленкин
Александр Потапов — тренер
Владимир Долинский — врач
Н. Золотова, К. Ионова — баскетболистки
Описание: По мотивам рассказов Кира Булычёва «Летнее утро», «Умение кидать мяч». Обычный человек может оказаться не готов к появлению искусственно вызванных необычных способностей.
Доп. информация:
Запись со спутника Eutelsat 36A/B, телеканал "Ноcтальгия".
Семпл: http://multi-up.com/1054247
Релиз:
Качество видео: DVB
Формат видео: MPEG-PS
Видео: MPEG-2, 720x576i, 25.000 fps, 3898 kbps
Аудио: Русский (MPEG Audio 2.0, 48 kHz, 192 kbps)
MediaInfo
Общее
Общее
Полное имя : O:\ЭФМ_выпуск_14_Умение кидать мяч_1988_DVB.mpg
Формат : MPEG-PS
Размер файла : 2,63 Гбайт
Продолжительность : 1 ч. 30 м.
Режим общего битрейта : Переменный
Общий поток : 4173 Кбит/сек
Видео
Идентификатор : 224 (0xE0)
Формат : MPEG Video
Версия формата : Version 2
Профиль формата : [email protected]
Параметр BVOP формата : Да
Параметр матрицы формата : Выборочная
Параметр GOP формата : M=3, N=36
Format_Settings_PictureStructure : Frame
Продолжительность : 1 ч. 30 м.
Вид битрейта : Переменный
Битрейт : 3898 Кбит/сек
Максимальный битрейт : 15,0 Мбит/сек
Ширина : 720 пикселей
Высота : 576 пикселей
Соотношение сторон : 4:3
Частота кадров : 25,000 кадров/сек
Стандарт вещания : PAL
Цветовое пространство : YUV
Субдискретизация насыщенности : 4:2:0
Битовая глубина : 8 бит
Тип развёртки : Чересстрочная
Порядок развёртки : Верхнее поле первое
Метод сжатия : С потерями
Бит/(Пиксели*Кадры) : 0.376
Временной код первого кадра : 00:00:01:00
Оригинал временного кода : Group of pictures header
Размер потока : 2,46 Гбайт (93%)
Аудио
Идентификатор : 192 (0xC0)
Формат : MPEG Audio
Версия формата : Version 1
Профиль формата : Layer 2
Продолжительность : 1 ч. 30 м.
Вид битрейта : Постоянный
Битрейт : 192 Кбит/сек
Каналы : 2 канала
Частота : 48,0 КГц
Метод сжатия : С потерями
Задержка видео : -311 мс.
Размер потока : 124 Мбайт (5%)
Скриншот с названием постановки
Скриншоты
Download
Для скачивания .torrent файлов необходима регистрация
Сайт не распространяет и не хранит электронные версии произведений, а лишь предоставляет доступ к создаваемому пользователями каталогу ссылок на торрент-файлы, которые содержат только списки хеш-сумм
[Профиль]  [ЛС] 

psicho

Top Seed 03* 160r

Стаж: 10 лет 11 месяцев

Сообщений: 1546

psicho · 20-Июн-15 16:35 (спустя 1 день 21 час)

[Цитировать] 

Обнаружены ошибки при переупаковки в контейнер MPEG-PS. Файл переделал, торрент перезалил 20.06.15 в 16:35 Мск. Просьба ко всем скачавшим скачать торрент заново и перехешировать. Прошу прощение за неудобства.
[Профиль]  [ЛС] 

Engene086

Стаж: 6 лет 8 месяцев

Сообщений: 67


Engene086 · 16-Сен-16 18:43 (спустя 1 год 2 месяца, ред. 16-Сен-16 18:43)

[Цитировать] 

А не напомните ли мне как называлось произведение, где был рукомойник с двумя перчатками которые мыли посуду. Я смотрел это приблизительно в то же время, что и ЭФМ. Такое впечатление, что было снято по произведению Булычева, вот только за давностью лет ничего конкретного вспомнить не получается. Заранее спасибо.
[Профиль]  [ЛС] 

moscomp

Стаж: 6 лет 11 месяцев

Сообщений: 126

moscomp · 06-Мар-18 04:13 (спустя 1 год 5 месяцев)

[Цитировать] 

может вы имеете ввиду Мойдодыр?
Engene086 писал(а):
71421578А не напомните ли мне как называлось произведение, где был рукомойник с двумя перчатками которые мыли посуду. Я смотрел это приблизительно в то же время, что и ЭФМ. Такое впечатление, что было снято по произведению Булычева, вот только за давностью лет ничего конкретного вспомнить не получается. Заранее спасибо.
[Профиль]  [ЛС] 

Antonij72-NN

Стаж: 12 лет

Сообщений: 70

Antonij72-NN · 01-Июн-18 04:05 (спустя 2 месяца 25 дней)

[Цитировать] 

Выпусков 4 и 8 в таком же качестве так и нет?
[Профиль]  [ЛС] 
 
Ответить
Loading...
Error