(Score) Доктор Кто: Сезон 9 / Doctor Who: Series 9 [4CD] (by Murray Gold) - 2018, FLAC (tracks+.cue), lossless

Страницы:  1

Ответить
Автор
Сообщение

Мейс Винду

Top Bonus 05* 10TB

Стаж: 9 лет 9 месяцев

Сообщений: 321

Мейс Винду · 03-Май-18 13:36 (2 месяца 14 дней назад, ред. 03-Май-18 14:38)

Доктор Кто: Сезон 9 / Doctor Who: Series 9

Жанр: Score
Композитор: Murray Gold
Год выпуска диска: 2018
Страна-производитель диска: UK
Издатель (лейбл): Silva Screen
Номер по каталогу: SILCD1520
Аудиокодек: FLAC (*.flac)
Тип рипа: tracks+.cue
Битрейт аудио: lossless
Продолжительность: 2:42:40
Источник: собственный рип
Наличие сканов в содержимом раздачи: да
Треклист:
Disc 1 [0:48:25]
The Magician’s Apprentice
01. The One In A Thousand (3:22)
02. Davros Remembers (2:39)
03. A Message From Missy (2:52)
04. Meeting In The Square (2:07)
05. Finding The Doctor (2:14)
06. What Have You Done (3:49)
The Witch’s Familiar
07. Davros Approaches (3:51)
Under The Lake
08. Some Kind Of Submarine (3:14)
09. The Ghosts (2:15)
Before The Flood
10. The Bootstrap Paradox (1:50)
11. Finding The Fisher King (2:35)
12. Another Ghost Has Appeared (4:22)
13. We Need To Get Back To The Tardis (0:52)
14. Directions From The Ghosts (1:33)
The Girl Who Died
15. Something In The Spacesuit (1:07)
16. Two Days On A Longboat (1:16)
17. I Am Ashildr (1:19)
18. In A Way, She’s A Hybrid (1:28)
The Woman Who Lived
19. I Call Myself Me (1:06)
20. They Need Us (1:52)
21. The Last Thing We Need (2:50)
Лог создания рипа
Exact Audio Copy V1.3 from 2. September 2016
EAC extraction logfile from 3. May 2018, 11:39
Murray Gold / Doctor Who: Series 9 [Disc 1]
Used drive : PIONEER BD-RW BDR-S09 Adapter: 1 ID: 0
Read mode : Secure
Utilize accurate stream : Yes
Defeat audio cache : Yes
Make use of C2 pointers : No
Read offset correction : 667
Overread into Lead-In and Lead-Out : No
Fill up missing offset samples with silence : Yes
Delete leading and trailing silent blocks : No
Null samples used in CRC calculations : Yes
Used interface : Native Win32 interface for Win NT & 2000
Gap handling : Appended to previous track
Used output format : User Defined Encoder
Selected bitrate : 128 kBit/s
Quality : High
Add ID3 tag : Yes
Command line compressor : C:\Program Files (x86)\Exact Audio Copy\Flac\flac.exe
Additional command line options : -V -8 -T "Genre=%genre%" -T "Artist=%artist%" -T "Title=%title%" -T "Album=%albumtitle%" -T "Date=%year%" -T "Tracknumber=%tracknr%" -T "Comment=%comment%" %source%
TOC of the extracted CD
Track | Start | Length | Start sector | End sector
---------------------------------------------------------
1 | 0:00.00 | 3:22.03 | 0 | 15152
2 | 3:22.03 | 2:39.35 | 15153 | 27112
3 | 6:01.38 | 2:52.33 | 27113 | 40045
4 | 8:53.71 | 2:07.32 | 40046 | 49602
5 | 11:01.28 | 2:14.12 | 49603 | 59664
6 | 13:15.40 | 3:48.50 | 59665 | 76814
7 | 17:04.15 | 3:51.22 | 76815 | 94161
8 | 20:55.37 | 3:14.20 | 94162 | 108731
9 | 24:09.57 | 2:15.13 | 108732 | 118869
10 | 26:24.70 | 1:50.01 | 118870 | 127120
11 | 28:14.71 | 2:35.15 | 127121 | 138760
12 | 30:50.11 | 4:21.53 | 138761 | 158388
13 | 35:11.64 | 0:51.58 | 158389 | 162271
14 | 36:03.47 | 1:33.34 | 162272 | 169280
15 | 37:37.06 | 1:06.42 | 169281 | 174272
16 | 38:43.48 | 1:16.26 | 174273 | 179998
17 | 39:59.74 | 1:18.47 | 179999 | 185895
18 | 41:18.46 | 1:27.68 | 185896 | 192488
19 | 42:46.39 | 1:06.24 | 192489 | 197462
20 | 43:52.63 | 1:51.41 | 197463 | 205828
21 | 45:44.29 | 2:49.50 | 205829 | 218553
Track 1
Filename G:\Музыка\Саундтреки\Murray Gold - Doctor Who [Series 9] (2018) [flac]\Disc 1\01. The One In A Thousand.wav
Pre-gap length 0:00:02.00
Peak level 91.2 %
Extraction speed 2.7 X
Track quality 100.0 %
Test CRC 896ACDD1
Copy CRC 896ACDD1
Track not present in AccurateRip database
Copy OK
Track 2
Filename G:\Музыка\Саундтреки\Murray Gold - Doctor Who [Series 9] (2018) [flac]\Disc 1\02. Davros Remembers.wav
Peak level 91.1 %
Extraction speed 2.8 X
Track quality 100.0 %
Test CRC EE6F3727
Copy CRC EE6F3727
Track not present in AccurateRip database
Copy OK
Track 3
Filename G:\Музыка\Саундтреки\Murray Gold - Doctor Who [Series 9] (2018) [flac]\Disc 1\03. A Message From Missy.wav
Peak level 91.1 %
Extraction speed 3.0 X
Track quality 100.0 %
Test CRC BCC1FDCA
Copy CRC BCC1FDCA
Track not present in AccurateRip database
Copy OK
Track 4
Filename G:\Музыка\Саундтреки\Murray Gold - Doctor Who [Series 9] (2018) [flac]\Disc 1\04. Meeting In The Square.wav
Peak level 91.0 %
Extraction speed 3.0 X
Track quality 100.0 %
Test CRC 004C2346
Copy CRC 004C2346
Track not present in AccurateRip database
Copy OK
Track 5
Filename G:\Музыка\Саундтреки\Murray Gold - Doctor Who [Series 9] (2018) [flac]\Disc 1\05. Finding The Doctor.wav
Peak level 91.1 %
Extraction speed 3.2 X
Track quality 100.0 %
Test CRC D7B24500
Copy CRC D7B24500
Track not present in AccurateRip database
Copy OK
Track 6
Filename G:\Музыка\Саундтреки\Murray Gold - Doctor Who [Series 9] (2018) [flac]\Disc 1\06. What Have You Done.wav
Peak level 91.1 %
Extraction speed 3.7 X
Track quality 100.0 %
Test CRC C256B714
Copy CRC C256B714
Track not present in AccurateRip database
Copy OK
Track 7
Filename G:\Музыка\Саундтреки\Murray Gold - Doctor Who [Series 9] (2018) [flac]\Disc 1\07. Davros Approaches.wav
Peak level 91.0 %
Extraction speed 3.9 X
Track quality 100.0 %
Test CRC E345C069
Copy CRC E345C069
Track not present in AccurateRip database
Copy OK
Track 8
Filename G:\Музыка\Саундтреки\Murray Gold - Doctor Who [Series 9] (2018) [flac]\Disc 1\08. Some Kind Of Submarine.wav
Peak level 91.2 %
Extraction speed 4.0 X
Track quality 100.0 %
Test CRC A525676B
Copy CRC A525676B
Track not present in AccurateRip database
Copy OK
Track 9
Filename G:\Музыка\Саундтреки\Murray Gold - Doctor Who [Series 9] (2018) [flac]\Disc 1\09. The Ghosts.wav
Peak level 91.1 %
Extraction speed 3.8 X
Track quality 100.0 %
Test CRC 2DA94A24
Copy CRC 2DA94A24
Track not present in AccurateRip database
Copy OK
Track 10
Filename G:\Музыка\Саундтреки\Murray Gold - Doctor Who [Series 9] (2018) [flac]\Disc 1\10. The Bootstrap Paradox.wav
Peak level 90.1 %
Extraction speed 3.8 X
Track quality 100.0 %
Test CRC 3D03584A
Copy CRC 3D03584A
Track not present in AccurateRip database
Copy OK
Track 11
Filename G:\Музыка\Саундтреки\Murray Gold - Doctor Who [Series 9] (2018) [flac]\Disc 1\11. Finding The Fisher King.wav
Peak level 91.1 %
Extraction speed 4.1 X
Track quality 100.0 %
Test CRC CBFFCCD2
Copy CRC CBFFCCD2
Track not present in AccurateRip database
Copy OK
Track 12
Filename G:\Музыка\Саундтреки\Murray Gold - Doctor Who [Series 9] (2018) [flac]\Disc 1\12. Another Ghost Has Appeared.wav
Peak level 92.0 %
Extraction speed 4.6 X
Track quality 100.0 %
Test CRC 831B5847
Copy CRC 831B5847
Track not present in AccurateRip database
Copy OK
Track 13
Filename G:\Музыка\Саундтреки\Murray Gold - Doctor Who [Series 9] (2018) [flac]\Disc 1\13. We Need To Get Back To The Tardis.wav
Peak level 91.1 %
Extraction speed 2.2 X
Track quality 99.7 %
Test CRC 505930B5
Copy CRC 505930B5
Track not present in AccurateRip database
Copy OK
Track 14
Filename G:\Музыка\Саундтреки\Murray Gold - Doctor Who [Series 9] (2018) [flac]\Disc 1\14. Directions From The Ghosts.wav
Peak level 91.0 %
Extraction speed 3.8 X
Track quality 100.0 %
Test CRC 8263AB2B
Copy CRC 8263AB2B
Track not present in AccurateRip database
Copy OK
Track 15
Filename G:\Музыка\Саундтреки\Murray Gold - Doctor Who [Series 9] (2018) [flac]\Disc 1\15. Something In The Spacesuit.wav
Peak level 91.4 %
Extraction speed 3.5 X
Track quality 100.0 %
Test CRC 94FF53F2
Copy CRC 94FF53F2
Track not present in AccurateRip database
Copy OK
Track 16
Filename G:\Музыка\Саундтреки\Murray Gold - Doctor Who [Series 9] (2018) [flac]\Disc 1\16. Two Days On A Longboat.wav
Peak level 91.0 %
Extraction speed 2.8 X
Track quality 99.8 %
Test CRC 097D9942
Copy CRC 097D9942
Track not present in AccurateRip database
Copy OK
Track 17
Filename G:\Музыка\Саундтреки\Murray Gold - Doctor Who [Series 9] (2018) [flac]\Disc 1\17. I Am Ashildr.wav
Peak level 91.2 %
Extraction speed 3.9 X
Track quality 100.0 %
Test CRC 485D2A13
Copy CRC 485D2A13
Track not present in AccurateRip database
Copy OK
Track 18
Filename G:\Музыка\Саундтреки\Murray Gold - Doctor Who [Series 9] (2018) [flac]\Disc 1\18. In A Way, She’s A Hybrid.wav
Peak level 91.1 %
Extraction speed 4.0 X
Track quality 100.0 %
Test CRC FD47301D
Copy CRC FD47301D
Track not present in AccurateRip database
Copy OK
Track 19
Filename G:\Музыка\Саундтреки\Murray Gold - Doctor Who [Series 9] (2018) [flac]\Disc 1\19. I Call Myself Me.wav
Peak level 72.3 %
Extraction speed 3.7 X
Track quality 100.0 %
Test CRC 68457C53
Copy CRC 68457C53
Track not present in AccurateRip database
Copy OK
Track 20
Filename G:\Музыка\Саундтреки\Murray Gold - Doctor Who [Series 9] (2018) [flac]\Disc 1\20. They Need Us.wav
Peak level 91.3 %
Extraction speed 3.5 X
Track quality 99.9 %
Test CRC 81DCDE83
Copy CRC 81DCDE83
Track not present in AccurateRip database
Copy OK
Track 21
Filename G:\Музыка\Саундтреки\Murray Gold - Doctor Who [Series 9] (2018) [flac]\Disc 1\21. The Last Thing We Need.wav
Peak level 91.0 %
Extraction speed 4.1 X
Track quality 99.9 %
Test CRC 25BDD0FB
Copy CRC 25BDD0FB
Track not present in AccurateRip database
Copy OK
None of the tracks are present in the AccurateRip database
No errors occurred
End of status report
---- CUETools DB Plugin V2.1.6
[CTDB TOCID: 0ZLF8fiAA7.7oo9rk6mUJMA8m2k-] found
Submit result: 0ZLF8fiAA7.7oo9rk6mUJMA8m2k- has been confirmed
Track | CTDB Status
1 | (14/14) Accurately ripped
2 | (14/14) Accurately ripped
3 | (14/14) Accurately ripped
4 | (14/14) Accurately ripped
5 | (14/14) Accurately ripped
6 | (14/14) Accurately ripped
7 | (14/14) Accurately ripped
8 | (14/14) Accurately ripped
9 | (14/14) Accurately ripped
10 | (14/14) Accurately ripped
11 | (14/14) Accurately ripped
12 | (14/14) Accurately ripped
13 | (14/14) Accurately ripped
14 | (14/14) Accurately ripped
15 | (14/14) Accurately ripped
16 | (14/14) Accurately ripped
17 | (14/14) Accurately ripped
18 | (14/14) Accurately ripped
19 | (14/14) Accurately ripped
20 | (14/14) Accurately ripped
21 | (14/14) Accurately ripped
==== Log checksum 8771BDE6BF43B7DBE20F76D87A032D4EE8D6667D806CFE061DBA6B693FD5B214 ====
Содержание индексной карты (.CUE)
REM GENRE Soundtrack
REM DATE 2018
REM DISCID 240B6215
REM COMMENT "ExactAudioCopy v1.3"
PERFORMER "Murray Gold"
TITLE "Doctor Who: Series 9 [Disc 1]"
REM COMPOSER ""
FILE "01. The One In A Thousand.wav" WAVE
TRACK 01 AUDIO
TITLE "The One In A Thousand"
PERFORMER "Murray Gold"
REM COMPOSER ""
ISRC GBCAD1700876
FLAGS DCP
INDEX 01 00:00:00
FILE "02. Davros Remembers.wav" WAVE
TRACK 02 AUDIO
TITLE "Davros Remembers"
PERFORMER "Murray Gold"
REM COMPOSER ""
ISRC GBCAD1700877
FLAGS DCP
INDEX 01 00:00:00
FILE "03. A Message From Missy.wav" WAVE
TRACK 03 AUDIO
TITLE "A Message From Missy"
PERFORMER "Murray Gold"
REM COMPOSER ""
ISRC GBCAD1700878
FLAGS DCP
INDEX 01 00:00:00
FILE "04. Meeting In The Square.wav" WAVE
TRACK 04 AUDIO
TITLE "Meeting In The Square"
PERFORMER "Murray Gold"
REM COMPOSER ""
ISRC GBCAD1700879
FLAGS DCP
INDEX 01 00:00:00
FILE "05. Finding The Doctor.wav" WAVE
TRACK 05 AUDIO
TITLE "Finding The Doctor"
PERFORMER "Murray Gold"
REM COMPOSER ""
ISRC GBCAD1700880
FLAGS DCP
INDEX 01 00:00:00
FILE "06. What Have You Done.wav" WAVE
TRACK 06 AUDIO
TITLE "What Have You Done"
PERFORMER "Murray Gold"
REM COMPOSER ""
ISRC GBCAD1700881
FLAGS DCP
INDEX 01 00:00:00
FILE "07. Davros Approaches.wav" WAVE
TRACK 07 AUDIO
TITLE "Davros Approaches"
PERFORMER "Murray Gold"
REM COMPOSER ""
ISRC GBCAD1700882
FLAGS DCP
INDEX 01 00:00:00
FILE "08. Some Kind Of Submarine.wav" WAVE
TRACK 08 AUDIO
TITLE "Some Kind Of Submarine"
PERFORMER "Murray Gold"
REM COMPOSER ""
ISRC GBCAD1700883
FLAGS DCP
INDEX 01 00:00:00
FILE "09. The Ghosts.wav" WAVE
TRACK 09 AUDIO
TITLE "The Ghosts"
PERFORMER "Murray Gold"
REM COMPOSER ""
ISRC GBCAD1700884
FLAGS DCP
INDEX 01 00:00:00
FILE "10. The Bootstrap Paradox.wav" WAVE
TRACK 10 AUDIO
TITLE "The Bootstrap Paradox"
PERFORMER "Murray Gold"
REM COMPOSER ""
ISRC GBCAD1700885
FLAGS DCP
INDEX 01 00:00:00
FILE "11. Finding The Fisher King.wav" WAVE
TRACK 11 AUDIO
TITLE "Finding The Fisher King"
PERFORMER "Murray Gold"
REM COMPOSER ""
ISRC GBCAD1700886
FLAGS DCP
INDEX 01 00:00:00
FILE "12. Another Ghost Has Appeared.wav" WAVE
TRACK 12 AUDIO
TITLE "Another Ghost Has Appeared"
PERFORMER "Murray Gold"
REM COMPOSER ""
ISRC GBCAD1700887
FLAGS DCP
INDEX 01 00:00:00
FILE "13. We Need To Get Back To The Tardis.wav" WAVE
TRACK 13 AUDIO
TITLE "We Need To Get Back To The Tardis"
PERFORMER "Murray Gold"
REM COMPOSER ""
ISRC GBCAD1700888
FLAGS DCP
INDEX 01 00:00:00
FILE "14. Directions From The Ghosts.wav" WAVE
TRACK 14 AUDIO
TITLE "Directions From The Ghosts"
PERFORMER "Murray Gold"
REM COMPOSER ""
ISRC GBCAD1700889
FLAGS DCP
INDEX 01 00:00:00
FILE "15. Something In The Spacesuit.wav" WAVE
TRACK 15 AUDIO
TITLE "Something In The Spacesuit"
PERFORMER "Murray Gold"
REM COMPOSER ""
ISRC GBCAD1700890
FLAGS DCP
INDEX 01 00:00:00
FILE "16. Two Days On A Longboat.wav" WAVE
TRACK 16 AUDIO
TITLE "Two Days On A Longboat"
PERFORMER "Murray Gold"
REM COMPOSER ""
ISRC GBCAD1700891
FLAGS DCP
INDEX 01 00:00:00
FILE "17. I Am Ashildr.wav" WAVE
TRACK 17 AUDIO
TITLE "I Am Ashildr"
PERFORMER "Murray Gold"
REM COMPOSER ""
ISRC GBCAD1700892
FLAGS DCP
INDEX 01 00:00:00
FILE "18. In A Way, She’s A Hybrid.wav" WAVE
TRACK 18 AUDIO
TITLE "In A Way, She’s A Hybrid"
PERFORMER "Murray Gold"
REM COMPOSER ""
ISRC GBCAD1700894
FLAGS DCP
INDEX 01 00:00:00
FILE "19. I Call Myself Me.wav" WAVE
TRACK 19 AUDIO
TITLE "I Call Myself Me"
PERFORMER "Murray Gold"
REM COMPOSER ""
ISRC GBCAD1700895
FLAGS DCP
INDEX 01 00:00:00
FILE "20. They Need Us.wav" WAVE
TRACK 20 AUDIO
TITLE "They Need Us"
PERFORMER "Murray Gold"
REM COMPOSER ""
ISRC GBCAD1700896
FLAGS DCP
INDEX 01 00:00:00
FILE "21. The Last Thing We Need.wav" WAVE
TRACK 21 AUDIO
TITLE "The Last Thing We Need"
PERFORMER "Murray Gold"
REM COMPOSER ""
ISRC GBCAD1700897
FLAGS DCP
INDEX 01 00:00:00
Disc 2 [0:43:07]
The Zygon Invasion
01. Deep Cover (5:11)
02. Just Come Inside (2:27)
The Zygon Inversion
03. This Is Not A War (3:56)
04. Defending The Earth (1:11)
Sleep No More
05. The Morpheus Song (5:25)
Face The Raven
06. Saving Rigsy (1:28)
07. Madam Mayor (1:58)
08. Running From The Raven (3:17)
09. Death Is Locked In (3:01)
10. Face The Raven (7:42)
Hell Bent
11. Back Home (2:27)
12. The General’s Regeneration (0:57)
13. A Duty Of Care (2:55)
14. Clara’s Diner (1:23)
Лог создания рипа
Exact Audio Copy V1.3 from 2. September 2016
EAC extraction logfile from 3. May 2018, 12:09
Murray Gold / Doctor Who: Series 9 [Disc 2]
Used drive : PIONEER BD-RW BDR-S09 Adapter: 1 ID: 0
Read mode : Secure
Utilize accurate stream : Yes
Defeat audio cache : Yes
Make use of C2 pointers : No
Read offset correction : 667
Overread into Lead-In and Lead-Out : No
Fill up missing offset samples with silence : Yes
Delete leading and trailing silent blocks : No
Null samples used in CRC calculations : Yes
Used interface : Native Win32 interface for Win NT & 2000
Gap handling : Appended to previous track
Used output format : User Defined Encoder
Selected bitrate : 128 kBit/s
Quality : High
Add ID3 tag : Yes
Command line compressor : C:\Program Files (x86)\Exact Audio Copy\Flac\flac.exe
Additional command line options : -V -8 -T "Genre=%genre%" -T "Artist=%artist%" -T "Title=%title%" -T "Album=%albumtitle%" -T "Date=%year%" -T "Tracknumber=%tracknr%" -T "Comment=%comment%" %source%
TOC of the extracted CD
Track | Start | Length | Start sector | End sector
---------------------------------------------------------
1 | 0:00.00 | 5:10.61 | 0 | 23310
2 | 5:10.61 | 2:26.41 | 23311 | 34301
3 | 7:37.27 | 3:56.17 | 34302 | 52018
4 | 11:33.44 | 1:10.67 | 52019 | 57335
5 | 12:44.36 | 5:24.61 | 57336 | 81696
6 | 18:09.22 | 1:27.63 | 81697 | 88284
7 | 19:37.10 | 1:57.58 | 88285 | 97117
8 | 21:34.68 | 3:16.73 | 97118 | 111890
9 | 24:51.66 | 3:00.62 | 111891 | 125452
10 | 27:52.53 | 7:42.08 | 125453 | 160110
11 | 35:34.61 | 2:27.10 | 160111 | 171145
12 | 38:01.71 | 0:56.72 | 171146 | 175417
13 | 38:58.68 | 2:54.73 | 175418 | 188540
14 | 41:53.66 | 1:22.39 | 188541 | 194729
Track 1
Filename G:\Музыка\Саундтреки\Murray Gold - Doctor Who [Series 9] (2018) [flac]\Disc 2\01. Deep Cover.wav
Pre-gap length 0:00:02.00
Peak level 91.3 %
Extraction speed 3.0 X
Track quality 100.0 %
Test CRC F97B9659
Copy CRC F97B9659
Track not present in AccurateRip database
Copy OK
Track 2
Filename G:\Музыка\Саундтреки\Murray Gold - Doctor Who [Series 9] (2018) [flac]\Disc 2\02. Just Come Inside.wav
Peak level 62.3 %
Extraction speed 2.8 X
Track quality 100.0 %
Test CRC 97AA389F
Copy CRC 97AA389F
Track not present in AccurateRip database
Copy OK
Track 3
Filename G:\Музыка\Саундтреки\Murray Gold - Doctor Who [Series 9] (2018) [flac]\Disc 2\03. This Is Not A War.wav
Peak level 91.1 %
Extraction speed 3.3 X
Track quality 100.0 %
Test CRC F8390733
Copy CRC F8390733
Track not present in AccurateRip database
Copy OK
Track 4
Filename G:\Музыка\Саундтреки\Murray Gold - Doctor Who [Series 9] (2018) [flac]\Disc 2\04. Defending The Earth.wav
Peak level 91.1 %
Extraction speed 2.7 X
Track quality 100.0 %
Test CRC 496B2937
Copy CRC 496B2937
Track not present in AccurateRip database
Copy OK
Track 5
Filename G:\Музыка\Саундтреки\Murray Gold - Doctor Who [Series 9] (2018) [flac]\Disc 2\05. The Morpheus Song.wav
Peak level 76.2 %
Extraction speed 3.8 X
Track quality 100.0 %
Test CRC F2173C2F
Copy CRC F2173C2F
Track not present in AccurateRip database
Copy OK
Track 6
Filename G:\Музыка\Саундтреки\Murray Gold - Doctor Who [Series 9] (2018) [flac]\Disc 2\06. Saving Rigsy.wav
Peak level 91.1 %
Extraction speed 3.2 X
Track quality 100.0 %
Test CRC EEFD2652
Copy CRC EEFD2652
Track not present in AccurateRip database
Copy OK
Track 7
Filename G:\Музыка\Саундтреки\Murray Gold - Doctor Who [Series 9] (2018) [flac]\Disc 2\07. Madam Mayor.wav
Peak level 91.1 %
Extraction speed 3.6 X
Track quality 100.0 %
Test CRC 1A41A887
Copy CRC 1A41A887
Track not present in AccurateRip database
Copy OK
Track 8
Filename G:\Музыка\Саундтреки\Murray Gold - Doctor Who [Series 9] (2018) [flac]\Disc 2\08. Running From The Raven.wav
Peak level 91.1 %
Extraction speed 4.0 X
Track quality 100.0 %
Test CRC 884D8F2D
Copy CRC 884D8F2D
Track not present in AccurateRip database
Copy OK
Track 9
Filename G:\Музыка\Саундтреки\Murray Gold - Doctor Who [Series 9] (2018) [flac]\Disc 2\09. Death Is Locked In.wav
Peak level 91.1 %
Extraction speed 4.1 X
Track quality 100.0 %
Test CRC 58DBA6A4
Copy CRC 58DBA6A4
Track not present in AccurateRip database
Copy OK
Track 10
Filename G:\Музыка\Саундтреки\Murray Gold - Doctor Who [Series 9] (2018) [flac]\Disc 2\10. Face The Raven.wav
Peak level 91.2 %
Extraction speed 4.5 X
Track quality 99.9 %
Test CRC 66DD0159
Copy CRC 66DD0159
Track not present in AccurateRip database
Copy OK
Track 11
Filename G:\Музыка\Саундтреки\Murray Gold - Doctor Who [Series 9] (2018) [flac]\Disc 2\11. Back Home.wav
Peak level 91.1 %
Extraction speed 4.3 X
Track quality 100.0 %
Test CRC 2A847549
Copy CRC 2A847549
Track not present in AccurateRip database
Copy OK
Track 12
Filename G:\Музыка\Саундтреки\Murray Gold - Doctor Who [Series 9] (2018) [flac]\Disc 2\12. The General’s Regeneration.wav
Peak level 91.1 %
Extraction speed 3.4 X
Track quality 100.0 %
Test CRC BC3CCA8C
Copy CRC BC3CCA8C
Track not present in AccurateRip database
Copy OK
Track 13
Filename G:\Музыка\Саундтреки\Murray Gold - Doctor Who [Series 9] (2018) [flac]\Disc 2\13. A Duty Of Care.wav
Peak level 91.0 %
Extraction speed 4.0 X
Track quality 99.9 %
Test CRC DDB11293
Copy CRC DDB11293
Track not present in AccurateRip database
Copy OK
Track 14
Filename G:\Музыка\Саундтреки\Murray Gold - Doctor Who [Series 9] (2018) [flac]\Disc 2\14. Clara’s Diner.wav
Peak level 49.3 %
Extraction speed 3.9 X
Track quality 100.0 %
Test CRC C539DB33
Copy CRC C539DB33
Track not present in AccurateRip database
Copy OK
None of the tracks are present in the AccurateRip database
No errors occurred
End of status report
---- CUETools DB Plugin V2.1.6
[CTDB TOCID: 7E1OjCblSiSmpY3tl0gW8puRlSY-] found
Submit result: 7E1OjCblSiSmpY3tl0gW8puRlSY- has been confirmed
Track | CTDB Status
1 | (14/14) Accurately ripped
2 | (14/14) Accurately ripped
3 | (14/14) Accurately ripped
4 | (14/14) Accurately ripped
5 | (14/14) Accurately ripped
6 | (14/14) Accurately ripped
7 | (14/14) Accurately ripped
8 | (14/14) Accurately ripped
9 | (14/14) Accurately ripped
10 | (14/14) Accurately ripped
11 | (14/14) Accurately ripped
12 | (14/14) Accurately ripped
13 | (14/14) Accurately ripped
14 | (14/14) Accurately ripped
==== Log checksum 03005C8DD12904DA0F1583FCD566146E2EF1DD0B92A4723F97A670E64A3282B2 ====
Содержание индексной карты (.CUE)
REM GENRE Soundtrack
REM DATE 2018
REM DISCID C40A240E
REM COMMENT "ExactAudioCopy v1.3"
PERFORMER "Murray Gold"
TITLE "Doctor Who: Series 9 [Disc 2]"
REM COMPOSER ""
FILE "01. Deep Cover.wav" WAVE
TRACK 01 AUDIO
TITLE "Deep Cover"
PERFORMER "Murray Gold"
REM COMPOSER ""
ISRC GBCAD1700898
FLAGS DCP
INDEX 01 00:00:00
FILE "02. Just Come Inside.wav" WAVE
TRACK 02 AUDIO
TITLE "Just Come Inside"
PERFORMER "Murray Gold"
REM COMPOSER ""
ISRC GBCAD1700899
FLAGS DCP
INDEX 01 00:00:00
FILE "03. This Is Not A War.wav" WAVE
TRACK 03 AUDIO
TITLE "This Is Not A War"
PERFORMER "Murray Gold"
REM COMPOSER ""
ISRC GBCAD1700900
FLAGS DCP
INDEX 01 00:00:00
FILE "04. Defending The Earth.wav" WAVE
TRACK 04 AUDIO
TITLE "Defending The Earth"
PERFORMER "Murray Gold"
REM COMPOSER ""
ISRC GBCAD1700901
FLAGS DCP
INDEX 01 00:00:00
FILE "05. The Morpheus Song.wav" WAVE
TRACK 05 AUDIO
TITLE "The Morpheus Song"
PERFORMER "Murray Gold"
REM COMPOSER ""
ISRC GBCAD1700902
FLAGS DCP
INDEX 01 00:00:00
FILE "06. Saving Rigsy.wav" WAVE
TRACK 06 AUDIO
TITLE "Saving Rigsy"
PERFORMER "Murray Gold"
REM COMPOSER ""
ISRC GBCAD1700903
FLAGS DCP
INDEX 01 00:00:00
FILE "07. Madam Mayor.wav" WAVE
TRACK 07 AUDIO
TITLE "Madam Mayor"
PERFORMER "Murray Gold"
REM COMPOSER ""
ISRC GBCAD1700904
FLAGS DCP
INDEX 01 00:00:00
FILE "08. Running From The Raven.wav" WAVE
TRACK 08 AUDIO
TITLE "Running From The Raven"
PERFORMER "Murray Gold"
REM COMPOSER ""
ISRC GBCAD1700905
FLAGS DCP
INDEX 01 00:00:00
FILE "09. Death Is Locked In.wav" WAVE
TRACK 09 AUDIO
TITLE "Death Is Locked In"
PERFORMER "Murray Gold"
REM COMPOSER ""
ISRC GBCAD1700906
FLAGS DCP
INDEX 01 00:00:00
FILE "10. Face The Raven.wav" WAVE
TRACK 10 AUDIO
TITLE "Face The Raven"
PERFORMER "Murray Gold"
REM COMPOSER ""
ISRC GBCAD1700907
FLAGS DCP
INDEX 01 00:00:00
FILE "11. Back Home.wav" WAVE
TRACK 11 AUDIO
TITLE "Back Home"
PERFORMER "Murray Gold"
REM COMPOSER ""
ISRC GBCAD1700908
FLAGS DCP
INDEX 01 00:00:00
FILE "12. The General’s Regeneration.wav" WAVE
TRACK 12 AUDIO
TITLE "The General’s Regeneration"
PERFORMER "Murray Gold"
REM COMPOSER ""
ISRC GBCAD1700909
FLAGS DCP
INDEX 01 00:00:00
FILE "13. A Duty Of Care.wav" WAVE
TRACK 13 AUDIO
TITLE "A Duty Of Care"
PERFORMER "Murray Gold"
REM COMPOSER ""
ISRC GBCAD1700910
FLAGS DCP
INDEX 01 00:00:00
FILE "14. Clara’s Diner.wav" WAVE
TRACK 14 AUDIO
TITLE "Clara’s Diner"
PERFORMER "Murray Gold"
REM COMPOSER ""
ISRC GBCAD1700911
FLAGS DCP
INDEX 01 00:00:00
Disc 3 [0:42:08]
Heaven Sent
01. A Second Shadow (1:27)
02. The Veil (2:46)
03. A Fly On A Painting (5:11)
04. A Change Of Clothes (1:46)
05. A Mechanical Maze (2:41)
06. Digging A Grave (3:42)
07. Tell No Lies (4:47)
08. Two Events In Life (3:13)
09. Waiting For The Veil (2:27)
10. The Final Room (1:21)
11. One Confession Away (1:50)
12. Break Free (3:04)
13. Same Old Day (3:13)
14. The Shepherd’s Boy (4:48)
Лог создания рипа
Exact Audio Copy V1.3 from 2. September 2016
EAC extraction logfile from 3. May 2018, 12:38
Murray Gold / Doctor Who: Series 9 [Disc 3]
Used drive : PIONEER BD-RW BDR-S09 Adapter: 1 ID: 0
Read mode : Secure
Utilize accurate stream : Yes
Defeat audio cache : Yes
Make use of C2 pointers : No
Read offset correction : 667
Overread into Lead-In and Lead-Out : No
Fill up missing offset samples with silence : Yes
Delete leading and trailing silent blocks : No
Null samples used in CRC calculations : Yes
Used interface : Native Win32 interface for Win NT & 2000
Gap handling : Appended to previous track
Used output format : User Defined Encoder
Selected bitrate : 128 kBit/s
Quality : High
Add ID3 tag : Yes
Command line compressor : C:\Program Files (x86)\Exact Audio Copy\Flac\flac.exe
Additional command line options : -V -8 -T "Genre=%genre%" -T "Artist=%artist%" -T "Title=%title%" -T "Album=%albumtitle%" -T "Date=%year%" -T "Tracknumber=%tracknr%" -T "Comment=%comment%" %source%
TOC of the extracted CD
Track | Start | Length | Start sector | End sector
---------------------------------------------------------
1 | 0:00.00 | 1:27.27 | 0 | 6551
2 | 1:27.27 | 2:45.54 | 6552 | 18980
3 | 4:13.06 | 5:11.22 | 18981 | 42327
4 | 9:24.28 | 1:45.53 | 42328 | 50255
5 | 11:10.06 | 2:40.67 | 50256 | 62322
6 | 13:50.73 | 3:41.59 | 62323 | 78956
7 | 17:32.57 | 4:46.68 | 78957 | 100474
8 | 22:19.50 | 3:13.23 | 100475 | 114972
9 | 25:32.73 | 2:26.49 | 114973 | 125971
10 | 27:59.47 | 1:21.19 | 125972 | 132065
11 | 29:20.66 | 1:50.24 | 132066 | 140339
12 | 31:11.15 | 3:03.73 | 140340 | 154137
13 | 34:15.13 | 3:13.10 | 154138 | 168622
14 | 37:28.23 | 4:47.54 | 168623 | 190201
Track 1
Filename G:\Музыка\Саундтреки\Murray Gold - Doctor Who [Series 9] (2018) [flac]\Disc 3\01. A Second Shadow.wav
Pre-gap length 0:00:02.00
Peak level 91.1 %
Extraction speed 2.2 X
Track quality 100.0 %
Test CRC A3C13C2E
Copy CRC A3C13C2E
Track not present in AccurateRip database
Copy OK
Track 2
Filename G:\Музыка\Саундтреки\Murray Gold - Doctor Who [Series 9] (2018) [flac]\Disc 3\02. The Veil.wav
Peak level 91.1 %
Extraction speed 2.7 X
Track quality 100.0 %
Test CRC 2132BB95
Copy CRC 2132BB95
Track not present in AccurateRip database
Copy OK
Track 3
Filename G:\Музыка\Саундтреки\Murray Gold - Doctor Who [Series 9] (2018) [flac]\Disc 3\03. A Fly On A Painting.wav
Peak level 91.1 %
Extraction speed 3.3 X
Track quality 100.0 %
Test CRC 14AB790A
Copy CRC 14AB790A
Track not present in AccurateRip database
Copy OK
Track 4
Filename G:\Музыка\Саундтреки\Murray Gold - Doctor Who [Series 9] (2018) [flac]\Disc 3\04. A Change Of Clothes.wav
Peak level 90.7 %
Extraction speed 2.9 X
Track quality 100.0 %
Test CRC AF8C5856
Copy CRC AF8C5856
Track not present in AccurateRip database
Copy OK
Track 5
Filename G:\Музыка\Саундтреки\Murray Gold - Doctor Who [Series 9] (2018) [flac]\Disc 3\05. A Mechanical Maze.wav
Peak level 91.1 %
Extraction speed 3.3 X
Track quality 100.0 %
Test CRC 55607BE3
Copy CRC 55607BE3
Track not present in AccurateRip database
Copy OK
Track 6
Filename G:\Музыка\Саундтреки\Murray Gold - Doctor Who [Series 9] (2018) [flac]\Disc 3\06. Digging A Grave.wav
Peak level 91.2 %
Extraction speed 3.2 X
Track quality 99.9 %
Test CRC FD305076
Copy CRC FD305076
Track not present in AccurateRip database
Copy OK
Track 7
Filename G:\Музыка\Саундтреки\Murray Gold - Doctor Who [Series 9] (2018) [flac]\Disc 3\07. Tell No Lies.wav
Peak level 91.1 %
Extraction speed 4.0 X
Track quality 100.0 %
Test CRC A3F8D4AE
Copy CRC A3F8D4AE
Track not present in AccurateRip database
Copy OK
Track 8
Filename G:\Музыка\Саундтреки\Murray Gold - Doctor Who [Series 9] (2018) [flac]\Disc 3\08. Two Events In Life.wav
Peak level 91.1 %
Extraction speed 4.0 X
Track quality 100.0 %
Test CRC 5FCC0B82
Copy CRC 5FCC0B82
Track not present in AccurateRip database
Copy OK
Track 9
Filename G:\Музыка\Саундтреки\Murray Gold - Doctor Who [Series 9] (2018) [flac]\Disc 3\09. Waiting For The Veil.wav
Peak level 91.2 %
Extraction speed 3.9 X
Track quality 100.0 %
Test CRC 6F7ABFE7
Copy CRC 6F7ABFE7
Track not present in AccurateRip database
Copy OK
Track 10
Filename G:\Музыка\Саундтреки\Murray Gold - Doctor Who [Series 9] (2018) [flac]\Disc 3\10. The Final Room.wav
Peak level 91.2 %
Extraction speed 3.5 X
Track quality 100.0 %
Test CRC 0D295640
Copy CRC 0D295640
Track not present in AccurateRip database
Copy OK
Track 11
Filename G:\Музыка\Саундтреки\Murray Gold - Doctor Who [Series 9] (2018) [flac]\Disc 3\11. One Confession Away.wav
Peak level 91.1 %
Extraction speed 3.9 X
Track quality 100.0 %
Test CRC CA4B53AB
Copy CRC CA4B53AB
Track not present in AccurateRip database
Copy OK
Track 12
Filename G:\Музыка\Саундтреки\Murray Gold - Doctor Who [Series 9] (2018) [flac]\Disc 3\12. Break Free.wav
Peak level 91.1 %
Extraction speed 4.4 X
Track quality 100.0 %
Test CRC 42CA11CA
Copy CRC 42CA11CA
Track not present in AccurateRip database
Copy OK
Track 13
Filename G:\Музыка\Саундтреки\Murray Gold - Doctor Who [Series 9] (2018) [flac]\Disc 3\13. Same Old Day.wav
Peak level 91.1 %
Extraction speed 4.5 X
Track quality 100.0 %
Test CRC 46BAEED0
Copy CRC 46BAEED0
Track not present in AccurateRip database
Copy OK
Track 14
Filename G:\Музыка\Саундтреки\Murray Gold - Doctor Who [Series 9] (2018) [flac]\Disc 3\14. The Shepherd’s Boy.wav
Peak level 91.2 %
Extraction speed 4.9 X
Track quality 100.0 %
Test CRC 399CF2E8
Copy CRC 399CF2E8
Track not present in AccurateRip database
Copy OK
None of the tracks are present in the AccurateRip database
No errors occurred
End of status report
---- CUETools DB Plugin V2.1.6
[CTDB TOCID: GrWPA95atoINXbCcyqWHpVA3gko-] found
Submit result: GrWPA95atoINXbCcyqWHpVA3gko- has been confirmed
Track | CTDB Status
1 | (14/14) Accurately ripped
2 | (14/14) Accurately ripped
3 | (14/14) Accurately ripped
4 | (14/14) Accurately ripped
5 | (14/14) Accurately ripped
6 | (14/14) Accurately ripped
7 | (14/14) Accurately ripped
8 | (14/14) Accurately ripped
9 | (14/14) Accurately ripped
10 | (14/14) Accurately ripped
11 | (14/14) Accurately ripped
12 | (14/14) Accurately ripped
13 | (14/14) Accurately ripped
14 | (14/14) Accurately ripped
==== Log checksum D4D3E810A9E88DA00D004836B0339F0F4D805AD03A6AAE885B7FC293BC5A9C1B ====
Содержание индексной карты (.CUE)
REM GENRE Soundtrack
REM DATE 2018
REM DISCID B609E80E
REM COMMENT "ExactAudioCopy v1.3"
PERFORMER "Murray Gold"
TITLE "Doctor Who: Series 9 [Disc 3]"
REM COMPOSER ""
FILE "01. A Second Shadow.wav" WAVE
TRACK 01 AUDIO
TITLE "A Second Shadow"
PERFORMER "Murray Gold"
REM COMPOSER ""
ISRC GBCAD1700912
FLAGS DCP
INDEX 01 00:00:00
FILE "02. The Veil.wav" WAVE
TRACK 02 AUDIO
TITLE "The Veil"
PERFORMER "Murray Gold"
REM COMPOSER ""
ISRC GBCAD1700913
FLAGS DCP
INDEX 01 00:00:00
FILE "03. A Fly On A Painting.wav" WAVE
TRACK 03 AUDIO
TITLE "A Fly On A Painting"
PERFORMER "Murray Gold"
REM COMPOSER ""
ISRC GBCAD1700914
FLAGS DCP
INDEX 01 00:00:00
FILE "04. A Change Of Clothes.wav" WAVE
TRACK 04 AUDIO
TITLE "A Change Of Clothes"
PERFORMER "Murray Gold"
REM COMPOSER ""
ISRC GBCAD1700915
FLAGS DCP
INDEX 01 00:00:00
FILE "05. A Mechanical Maze.wav" WAVE
TRACK 05 AUDIO
TITLE "A Mechanical Maze"
PERFORMER "Murray Gold"
REM COMPOSER ""
ISRC GBCAD1700916
FLAGS DCP
INDEX 01 00:00:00
FILE "06. Digging A Grave.wav" WAVE
TRACK 06 AUDIO
TITLE "Digging A Grave"
PERFORMER "Murray Gold"
REM COMPOSER ""
ISRC GBCAD1700917
FLAGS DCP
INDEX 01 00:00:00
FILE "07. Tell No Lies.wav" WAVE
TRACK 07 AUDIO
TITLE "Tell No Lies"
PERFORMER "Murray Gold"
REM COMPOSER ""
ISRC GBCAD1700918
FLAGS DCP
INDEX 01 00:00:00
FILE "08. Two Events In Life.wav" WAVE
TRACK 08 AUDIO
TITLE "Two Events In Life"
PERFORMER "Murray Gold"
REM COMPOSER ""
ISRC GBCAD1700919
FLAGS DCP
INDEX 01 00:00:00
FILE "09. Waiting For The Veil.wav" WAVE
TRACK 09 AUDIO
TITLE "Waiting For The Veil"
PERFORMER "Murray Gold"
REM COMPOSER ""
ISRC GBCAD1700920
FLAGS DCP
INDEX 01 00:00:00
FILE "10. The Final Room.wav" WAVE
TRACK 10 AUDIO
TITLE "The Final Room"
PERFORMER "Murray Gold"
REM COMPOSER ""
ISRC GBCAD1700921
FLAGS DCP
INDEX 01 00:00:00
FILE "11. One Confession Away.wav" WAVE
TRACK 11 AUDIO
TITLE "One Confession Away"
PERFORMER "Murray Gold"
REM COMPOSER ""
ISRC GBCAD1700922
FLAGS DCP
INDEX 01 00:00:00
FILE "12. Break Free.wav" WAVE
TRACK 12 AUDIO
TITLE "Break Free"
PERFORMER "Murray Gold"
REM COMPOSER ""
ISRC GBCAD1700923
FLAGS DCP
INDEX 01 00:00:00
FILE "13. Same Old Day.wav" WAVE
TRACK 13 AUDIO
TITLE "Same Old Day"
PERFORMER "Murray Gold"
REM COMPOSER ""
ISRC GBCAD1700924
FLAGS DCP
INDEX 01 00:00:00
FILE "14. The Shepherd’s Boy.wav" WAVE
TRACK 14 AUDIO
TITLE "The Shepherd’s Boy"
PERFORMER "Murray Gold"
REM COMPOSER ""
ISRC GBCAD1700925
FLAGS DCP
INDEX 01 00:00:00
Disc 4 [0:29:00]
The Husbands Of River Song
01. Carol Singers Will Be Criticised (1:06)
02. A Dying Husband (1:42)
03. The Finest Surgeon In The Galaxy (1:17)
04. The Halassi Androvar (1:29)
05. The Husbands Of River Song (2:34)
06. The Tardis Can’t Take Off (1:20)
07. Time To Do It Properly (0:52)
08. Harmony And Redemption (1:25)
09. Hydroflax In The Tardis (1:07)
10. Whole Again At Last (1:35)
11. All The Firewalls In The Galaxy (2:14)
12. A Restaurant With A View (4:23)
13. The Woman He Loves (3:15)
14. The Singing Towers (4:48)
Лог создания рипа
Exact Audio Copy V1.3 from 2. September 2016
EAC extraction logfile from 3. May 2018, 13:01
Murray Gold / Doctor Who: Series 9 [Disc 4]
Used drive : PIONEER BD-RW BDR-S09 Adapter: 1 ID: 0
Read mode : Secure
Utilize accurate stream : Yes
Defeat audio cache : Yes
Make use of C2 pointers : No
Read offset correction : 667
Overread into Lead-In and Lead-Out : No
Fill up missing offset samples with silence : Yes
Delete leading and trailing silent blocks : No
Null samples used in CRC calculations : Yes
Used interface : Native Win32 interface for Win NT & 2000
Gap handling : Appended to previous track
Used output format : User Defined Encoder
Selected bitrate : 128 kBit/s
Quality : High
Add ID3 tag : Yes
Command line compressor : C:\Program Files (x86)\Exact Audio Copy\Flac\flac.exe
Additional command line options : -V -8 -T "Genre=%genre%" -T "Artist=%artist%" -T "Title=%title%" -T "Album=%albumtitle%" -T "Date=%year%" -T "Tracknumber=%tracknr%" -T "Comment=%comment%" %source%
TOC of the extracted CD
Track | Start | Length | Start sector | End sector
---------------------------------------------------------
1 | 0:00.00 | 1:06.14 | 0 | 4963
2 | 1:06.14 | 1:42.33 | 4964 | 12646
3 | 2:48.47 | 1:16.41 | 12647 | 18387
4 | 4:05.13 | 1:29.33 | 18388 | 25095
5 | 5:34.46 | 2:33.40 | 25096 | 36610
6 | 8:08.11 | 1:19.48 | 36611 | 42583
7 | 9:27.59 | 0:52.19 | 42584 | 46502
8 | 10:20.03 | 1:24.48 | 46503 | 52850
9 | 11:44.51 | 1:06.67 | 52851 | 57867
10 | 12:51.43 | 1:35.20 | 57868 | 65012
11 | 14:26.63 | 2:13.64 | 65013 | 75051
12 | 16:40.52 | 4:23.27 | 75052 | 94803
13 | 21:04.04 | 3:15.24 | 94804 | 109452
14 | 24:19.28 | 4:47.68 | 109453 | 131045
Track 1
Filename G:\Музыка\Саундтреки\Murray Gold - Doctor Who [Series 9] (2018) [flac]\Disc 4\01. Carol Singers Will Be Criticised.wav
Pre-gap length 0:00:02.00
Peak level 91.1 %
Extraction speed 2.0 X
Track quality 100.0 %
Test CRC 1E0613B6
Copy CRC 1E0613B6
Track not present in AccurateRip database
Copy OK
Track 2
Filename G:\Музыка\Саундтреки\Murray Gold - Doctor Who [Series 9] (2018) [flac]\Disc 4\02. A Dying Husband.wav
Peak level 91.1 %
Extraction speed 2.4 X
Track quality 100.0 %
Test CRC BA546B14
Copy CRC BA546B14
Track not present in AccurateRip database
Copy OK
Track 3
Filename G:\Музыка\Саундтреки\Murray Gold - Doctor Who [Series 9] (2018) [flac]\Disc 4\03. The Finest Surgeon In The Galaxy.wav
Peak level 91.0 %
Extraction speed 2.3 X
Track quality 100.0 %
Test CRC 55368957
Copy CRC 55368957
Track not present in AccurateRip database
Copy OK
Track 4
Filename G:\Музыка\Саундтреки\Murray Gold - Doctor Who [Series 9] (2018) [flac]\Disc 4\04. The Halassi Androvar.wav
Peak level 91.1 %
Extraction speed 2.5 X
Track quality 100.0 %
Test CRC 5449C015
Copy CRC 5449C015
Track not present in AccurateRip database
Copy OK
Track 5
Filename G:\Музыка\Саундтреки\Murray Gold - Doctor Who [Series 9] (2018) [flac]\Disc 4\05. The Husbands Of River Song.wav
Peak level 91.4 %
Extraction speed 2.9 X
Track quality 100.0 %
Test CRC 233DAE3A
Copy CRC 233DAE3A
Track not present in AccurateRip database
Copy OK
Track 6
Filename G:\Музыка\Саундтреки\Murray Gold - Doctor Who [Series 9] (2018) [flac]\Disc 4\06. The Tardis Can’t Take Off.wav
Peak level 91.1 %
Extraction speed 2.6 X
Track quality 100.0 %
Test CRC 44EA3DC7
Copy CRC 44EA3DC7
Track not present in AccurateRip database
Copy OK
Track 7
Filename G:\Музыка\Саундтреки\Murray Gold - Doctor Who [Series 9] (2018) [flac]\Disc 4\07. Time To Do It Properly.wav
Peak level 91.1 %
Extraction speed 2.3 X
Track quality 100.0 %
Test CRC 86130180
Copy CRC 86130180
Track not present in AccurateRip database
Copy OK
Track 8
Filename G:\Музыка\Саундтреки\Murray Gold - Doctor Who [Series 9] (2018) [flac]\Disc 4\08. Harmony And Redemption.wav
Peak level 80.9 %
Extraction speed 2.2 X
Track quality 99.8 %
Test CRC D7161682
Copy CRC D7161682
Track not present in AccurateRip database
Copy OK
Track 9
Filename G:\Музыка\Саундтреки\Murray Gold - Doctor Who [Series 9] (2018) [flac]\Disc 4\09. Hydroflax In The Tardis.wav
Peak level 91.3 %
Extraction speed 2.6 X
Track quality 100.0 %
Test CRC D6A12A76
Copy CRC D6A12A76
Track not present in AccurateRip database
Copy OK
Track 10
Filename G:\Музыка\Саундтреки\Murray Gold - Doctor Who [Series 9] (2018) [flac]\Disc 4\10. Whole Again At Last.wav
Peak level 91.1 %
Extraction speed 2.3 X
Track quality 99.8 %
Test CRC 558C8F86
Copy CRC 558C8F86
Track not present in AccurateRip database
Copy OK
Track 11
Filename G:\Музыка\Саундтреки\Murray Gold - Doctor Who [Series 9] (2018) [flac]\Disc 4\11. All The Firewalls In The Galaxy.wav
Peak level 92.1 %
Extraction speed 3.3 X
Track quality 100.0 %
Test CRC 74C6B105
Copy CRC 74C6B105
Track not present in AccurateRip database
Copy OK
Track 12
Filename G:\Музыка\Саундтреки\Murray Gold - Doctor Who [Series 9] (2018) [flac]\Disc 4\12. A Restaurant With A View.wav
Peak level 91.0 %
Extraction speed 3.9 X
Track quality 100.0 %
Test CRC 0D511062
Copy CRC 0D511062
Track not present in AccurateRip database
Copy OK
Track 13
Filename G:\Музыка\Саундтреки\Murray Gold - Doctor Who [Series 9] (2018) [flac]\Disc 4\13. The Woman He Loves.wav
Peak level 91.1 %
Extraction speed 4.0 X
Track quality 100.0 %
Test CRC E5DE2A66
Copy CRC E5DE2A66
Track not present in AccurateRip database
Copy OK
Track 14
Filename G:\Музыка\Саундтреки\Murray Gold - Doctor Who [Series 9] (2018) [flac]\Disc 4\14. The Singing Towers.wav
Peak level 91.1 %
Extraction speed 4.4 X
Track quality 100.0 %
Test CRC FCC339C6
Copy CRC FCC339C6
Track not present in AccurateRip database
Copy OK
None of the tracks are present in the AccurateRip database
No errors occurred
End of status report
---- CUETools DB Plugin V2.1.6
[CTDB TOCID: dziAW_ov0vzZLCzycN7AfjVZLmU-] found
Submit result: dziAW_ov0vzZLCzycN7AfjVZLmU- has been confirmed
Track | CTDB Status
1 | (14/14) Accurately ripped
2 | (14/14) Accurately ripped
3 | (14/14) Accurately ripped
4 | (14/14) Accurately ripped
5 | (14/14) Accurately ripped
6 | (14/14) Accurately ripped
7 | (14/14) Accurately ripped
8 | (14/14) Accurately ripped
9 | (14/14) Accurately ripped
10 | (14/14) Accurately ripped
11 | (14/14) Accurately ripped
12 | (14/14) Accurately ripped
13 | (14/14) Accurately ripped
14 | (14/14) Accurately ripped
==== Log checksum 877B8DABD82E8558CA18D897FDA73B222B74201F7DB2924BBC95E50E21BD453B ====
Содержание индексной карты (.CUE)
REM GENRE Soundtrack
REM DATE 2018
REM DISCID AE06D30E
REM COMMENT "ExactAudioCopy v1.3"
PERFORMER "Murray Gold"
TITLE "Doctor Who: Series 9 [Disc 4]"
REM COMPOSER ""
FILE "01. Carol Singers Will Be Criticised.wav" WAVE
TRACK 01 AUDIO
TITLE "Carol Singers Will Be Criticised"
PERFORMER "Murray Gold"
REM COMPOSER ""
ISRC GBCAD1700926
FLAGS DCP
INDEX 01 00:00:00
FILE "02. A Dying Husband.wav" WAVE
TRACK 02 AUDIO
TITLE "A Dying Husband"
PERFORMER "Murray Gold"
REM COMPOSER ""
ISRC GBCAD1700927
FLAGS DCP
INDEX 01 00:00:00
FILE "03. The Finest Surgeon In The Galaxy.wav" WAVE
TRACK 03 AUDIO
TITLE "The Finest Surgeon In The Galaxy"
PERFORMER "Murray Gold"
REM COMPOSER ""
ISRC GBCAD1700928
FLAGS DCP
INDEX 01 00:00:00
FILE "04. The Halassi Androvar.wav" WAVE
TRACK 04 AUDIO
TITLE "The Halassi Androvar"
PERFORMER "Murray Gold"
REM COMPOSER ""
ISRC GBCAD1700929
FLAGS DCP
INDEX 01 00:00:00
FILE "05. The Husbands Of River Song.wav" WAVE
TRACK 05 AUDIO
TITLE "The Husbands Of River Song"
PERFORMER "Murray Gold"
REM COMPOSER ""
ISRC GBCAD1700930
FLAGS DCP
INDEX 01 00:00:00
FILE "06. The Tardis Can’t Take Off.wav" WAVE
TRACK 06 AUDIO
TITLE "The Tardis Can’t Take Off"
PERFORMER "Murray Gold"
REM COMPOSER ""
ISRC GBCAD1700931
FLAGS DCP
INDEX 01 00:00:00
FILE "07. Time To Do It Properly.wav" WAVE
TRACK 07 AUDIO
TITLE "Time To Do It Properly"
PERFORMER "Murray Gold"
REM COMPOSER ""
ISRC GBCAD1700932
FLAGS DCP
INDEX 01 00:00:00
FILE "08. Harmony And Redemption.wav" WAVE
TRACK 08 AUDIO
TITLE "Harmony And Redemption"
PERFORMER "Murray Gold"
REM COMPOSER ""
ISRC GBCAD1700933
FLAGS DCP
INDEX 01 00:00:00
FILE "09. Hydroflax In The Tardis.wav" WAVE
TRACK 09 AUDIO
TITLE "Hydroflax In The Tardis"
PERFORMER "Murray Gold"
REM COMPOSER ""
ISRC GBCAD1700934
FLAGS DCP
INDEX 01 00:00:00
FILE "10. Whole Again At Last.wav" WAVE
TRACK 10 AUDIO
TITLE "Whole Again At Last"
PERFORMER "Murray Gold"
REM COMPOSER ""
ISRC GBCAD1700935
FLAGS DCP
INDEX 01 00:00:00
FILE "11. All The Firewalls In The Galaxy.wav" WAVE
TRACK 11 AUDIO
TITLE "All The Firewalls In The Galaxy"
PERFORMER "Murray Gold"
REM COMPOSER ""
ISRC GBCAD1700936
FLAGS DCP
INDEX 01 00:00:00
FILE "12. A Restaurant With A View.wav" WAVE
TRACK 12 AUDIO
TITLE "A Restaurant With A View"
PERFORMER "Murray Gold"
REM COMPOSER ""
ISRC GBCAD1700937
FLAGS DCP
INDEX 01 00:00:00
FILE "13. The Woman He Loves.wav" WAVE
TRACK 13 AUDIO
TITLE "The Woman He Loves"
PERFORMER "Murray Gold"
REM COMPOSER ""
ISRC GBCAD1700939
FLAGS DCP
INDEX 01 00:00:00
FILE "14. The Singing Towers.wav" WAVE
TRACK 14 AUDIO
TITLE "The Singing Towers"
PERFORMER "Murray Gold"
REM COMPOSER ""
ISRC GBCAD1700938
FLAGS DCP
INDEX 01 00:00:00
Download
Для скачивания .torrent файлов необходима регистрация
Сайт не распространяет и не хранит электронные версии произведений, а лишь предоставляет доступ к создаваемому пользователями каталогу ссылок на торрент-файлы, которые содержат только списки хеш-сумм
[Профиль]  [ЛС] 

xnote2007

Стаж: 9 лет 5 месяцев

Сообщений: 35


xnote2007 · 25-Май-18 18:54 (спустя 22 дня)

[Цитировать] 

Большое спасибо!!!
[Профиль]  [ЛС] 

Bertranka

Стаж: 4 года 10 месяцев

Сообщений: 93


Bertranka · 23-Июн-18 09:45 (спустя 28 дней)

[Цитировать] 

Думал уже что не дождусь.
[Профиль]  [ЛС] 
 
Ответить
Loading...
Error