(Score/MF) Скуби-Ду! и Призрак Ведьмы / Scooby-Doo! and The Witch's Ghost - 1999, FLAC (tracks+.cue), lossless

Страницы:  1

Ответить
Автор
Сообщение

yaroslav230596

Стаж: 7 лет 4 месяца

Сообщений: 392

yaroslav230596 · 24-Сен-17 14:39 (9 месяцев назад)

Скуби-Ду! и Призрак Ведьмы / Scooby-Doo! and The Witch's Ghost
Название альбома: Scooby-Doo! and The Witch's Ghost: Songs from the Animated Feature & More!
Год выпуска: 1999
Страна: США
Издатель (лейбл): Rhino Records
Номер по каталогу: R2 75709
Аудио кодек: FLAC (*.flac)
Тип рипа: tracks+.cue
Битрейт аудио: lossless
Продолжительность: 00:32:02
Наличие сканов в содержимом раздачи: нет
Треклист:
1. Billy Ray Cyrus – Scooby-Doo, Where Are You! (01:02)
2. The Hex Girls – Hex Girl (01:43)
3. The Hex Girls – Earth, Wind, Fire, And Air (01:55)
4. The Hex Girls – The Witch's Ghost (03:10)
5. The Hex Girls – It's A Mystery (03:08)
6. The Hex Girls – Scooby Snacks (03:20)
7. The Hex Girls – Zoinks! (03:10)
8. The Hex Girls – Those Meddlin' Kids (03:17)
9. Louis Febre – Ghost Story (03:13)
10. Joe Pizzulo & Gary Falcone – The Ghost Is Here (02:21)
11. Joe Pizzulo & Gary Falcone – Terror Time (02:55)
12. Scooby-Doo, Where Are You! (Instrumental Mix) (02:43)
Лог создания рипа
Exact Audio Copy V1.0 beta 4 from 7. December 2014
EAC extraction logfile from 7. January 2015, 19:08
Various Artists / Scooby-Doo! And The Witch's Ghost (OST)
Used drive : TSSTcorpCDDVDW SE-218CB Adapter: 1 ID: 1
Read mode : Secure
Utilize accurate stream : Yes
Defeat audio cache : Yes
Make use of C2 pointers : No
Read offset correction : 6
Overread into Lead-In and Lead-Out : No
Fill up missing offset samples with silence : Yes
Delete leading and trailing silent blocks : No
Null samples used in CRC calculations : Yes
Used interface : Native Win32 interface for Win NT & 2000
Gap handling : Appended to previous track
Used output format : User Defined Encoder
Selected bitrate : 1024 kBit/s
Quality : High
Add ID3 tag : No
Command line compressor : E:\utils\flac-1.3.0\flac.exe
Additional command line options : -8 -V -T "ARTIST=%artist%" -T "TITLE=%title%" -T "ALBUM=%albumtitle%" -T "DATE=%year%" -T "TRACKNUMBER=%tracknr%" -T "GENRE=%genre%" -T "PERFORMER=%albuminterpret%" -T "COMPOSER=%composer%" %haslyrics%--tag-from-file=LYRICS="%lyricsfile%"%haslyrics% -T "ALBUMARTIST=%albumartist%" -T "DISCNUMBER=%cdnumber%" -T "TOTALDISCS=%totalcds%" -T "TOTALTRACKS=%numtracks%" -T "COMMENT=%comment%" %source% -o %dest%
TOC of the extracted CD
Track | Start | Length | Start sector | End sector
---------------------------------------------------------
1 | 0:00.32 | 1:02.38 | 32 | 4719
2 | 1:02.70 | 1:43.22 | 4720 | 12466
3 | 2:46.17 | 1:55.18 | 12467 | 21109
4 | 4:41.35 | 3:10.47 | 21110 | 35406
5 | 7:52.07 | 3:08.25 | 35407 | 49531
6 | 11:00.32 | 3:19.70 | 49532 | 64526
7 | 14:20.27 | 3:10.58 | 64527 | 78834
8 | 17:31.10 | 3:17.70 | 78835 | 93679
9 | 20:49.05 | 3:13.62 | 93680 | 108216
10 | 24:02.67 | 2:21.43 | 108217 | 118834
11 | 26:24.35 | 2:55.27 | 118835 | 131986
12 | 29:19.62 | 2:42.65 | 131987 | 144201
Track 1
Filename E:\EAC Rips\Scooby-Doo! And The Witch's Ghost (OST)\01 - Billy Ray Cyrus - Scooby-Doo, Where Are You.wav
Pre-gap length 0:00:02.42
Peak level 98.8 %
Extraction speed 0.7 X
Track quality 100.0 %
Test CRC A6659BD0
Copy CRC A6659BD0
Cannot be verified as accurate (confidence 4) [8A274257], AccurateRip returned [CA261E55] (AR v2)
Copy OK
Track 2
Filename E:\EAC Rips\Scooby-Doo! And The Witch's Ghost (OST)\02 - Hex Girls - Hex Girl.wav
Pre-gap length 0:00:01.73
Peak level 94.4 %
Extraction speed 0.9 X
Track quality 100.0 %
Test CRC A5D34688
Copy CRC A5D34688
Cannot be verified as accurate (confidence 4) [C4D8935D], AccurateRip returned [7E434310] (AR v2)
Copy OK
Track 3
Filename E:\EAC Rips\Scooby-Doo! And The Witch's Ghost (OST)\03 - Hex Girls - Earth, Wind, Fire, And Air.wav
Pre-gap length 0:00:01.80
Peak level 94.4 %
Extraction speed 1.0 X
Track quality 100.0 %
Test CRC CD97929F
Copy CRC CD97929F
Cannot be verified as accurate (confidence 4) [EB549682], AccurateRip returned [AB57BAC7] (AR v2)
Copy OK
Track 4
Filename E:\EAC Rips\Scooby-Doo! And The Witch's Ghost (OST)\04 - Hex Girls - The Witch's Ghost.wav
Pre-gap length 0:00:02.40
Peak level 94.4 %
Extraction speed 1.2 X
Track quality 100.0 %
Test CRC E3D0527A
Copy CRC E3D0527A
Cannot be verified as accurate (confidence 4) [2F9C3CB8], AccurateRip returned [0DE7007B] (AR v2)
Copy OK
Track 5
Filename E:\EAC Rips\Scooby-Doo! And The Witch's Ghost (OST)\05 - Hex Girls - It's A Mystery.wav
Pre-gap length 0:00:01.36
Peak level 94.4 %
Extraction speed 1.3 X
Track quality 100.0 %
Test CRC DDE697F6
Copy CRC DDE697F6
Cannot be verified as accurate (confidence 3) [6D3943E2], AccurateRip returned [FB6990E6] (AR v2)
Copy OK
Track 6
Filename E:\EAC Rips\Scooby-Doo! And The Witch's Ghost (OST)\06 - Hex Girls - Scooby Snacks.wav
Pre-gap length 0:00:01.40
Peak level 94.4 %
Extraction speed 1.4 X
Track quality 100.0 %
Test CRC 0AAB051F
Copy CRC 0AAB051F
Cannot be verified as accurate (confidence 4) [79BBF89D], AccurateRip returned [1B9F4F4D] (AR v2)
Copy OK
Track 7
Filename E:\EAC Rips\Scooby-Doo! And The Witch's Ghost (OST)\07 - Hex Girls - Zoinks!.wav
Pre-gap length 0:00:02.06
Peak level 94.4 %
Extraction speed 1.5 X
Track quality 100.0 %
Test CRC E9E7011A
Copy CRC E9E7011A
Cannot be verified as accurate (confidence 4) [EB708D9A], AccurateRip returned [F0C530F6] (AR v2)
Copy OK
Track 8
Filename E:\EAC Rips\Scooby-Doo! And The Witch's Ghost (OST)\08 - Hex Girls - Those Meddlin' Kids.wav
Pre-gap length 0:00:01.60
Peak level 94.4 %
Extraction speed 1.5 X
Track quality 100.0 %
Test CRC 48CA7E0C
Copy CRC 48CA7E0C
Cannot be verified as accurate (confidence 4) [0E82B19C], AccurateRip returned [9FAFA812] (AR v2)
Copy OK
Track 9
Filename E:\EAC Rips\Scooby-Doo! And The Witch's Ghost (OST)\09 - Luis Febre - Ghost Story.wav
Pre-gap length 0:00:00.66
Peak level 94.4 %
Extraction speed 1.6 X
Track quality 100.0 %
Test CRC 6699B1E1
Copy CRC 6699B1E1
Cannot be verified as accurate (confidence 4) [1C11CA78], AccurateRip returned [C9CFC999] (AR v2)
Copy OK
Track 10
Filename E:\EAC Rips\Scooby-Doo! And The Witch's Ghost (OST)\10 - Joe Pizzulo - Gary Falcone , The Ghost Is Here.wav
Pre-gap length 0:00:01.82
Peak level 94.4 %
Extraction speed 1.6 X
Track quality 100.0 %
Test CRC EB03797F
Copy CRC EB03797F
Cannot be verified as accurate (confidence 4) [A632C8B7], AccurateRip returned [F3BBC83E] (AR v2)
Copy OK
Track 11
Filename E:\EAC Rips\Scooby-Doo! And The Witch's Ghost (OST)\11 - Joe Pizzulo - Gary Falcone , Terror Time.wav
Pre-gap length 0:00:01.17
Peak level 94.4 %
Extraction speed 1.7 X
Track quality 100.0 %
Test CRC 17934DD3
Copy CRC 17934DD3
Cannot be verified as accurate (confidence 4) [B5397A9D], AccurateRip returned [2E6F9DFC] (AR v2)
Copy OK
Track 12
Filename E:\EAC Rips\Scooby-Doo! And The Witch's Ghost (OST)\12 - Various - Scooby-Doo, Where Are You (Instrumental Mix).wav
Pre-gap length 0:00:02.13
Peak level 94.4 %
Extraction speed 1.7 X
Track quality 100.0 %
Test CRC F4F93AC6
Copy CRC F4F93AC6
Cannot be verified as accurate (confidence 4) [50C4F16B], AccurateRip returned [45109BDD] (AR v2)
Copy OK
No tracks could be verified as accurate
You may have a different pressing from the one(s) in the database
No errors occurred
End of status report
---- CUETools DB Plugin V2.1.4
[CTDB TOCID: 1S2rz_nlZgY9sZ40SOFl.MGaq5g-] disk not present in database
Submit result: 1S2rz_nlZgY9sZ40SOFl.MGaq5g- has been uploaded
==== Log checksum 35B775D1F0538D61C007BF9AE1E8CEE6ACE090875F6771DE8275B4C84E78D86C ====
Содержание индексной карты (.CUE)
REM GENRE Soundtrack
REM DATE 1999
REM DISCID 9707820C
REM COMMENT "ExactAudioCopy v1.0b4"
FILE "01 - Billy Ray Cyrus - Scooby-Doo, Where Are You.wav" WAVE
TRACK 01 AUDIO
PREGAP 00:00:32
INDEX 01 00:00:00
TRACK 02 AUDIO
INDEX 00 01:00:58
FILE "02 - Hex Girls - Hex Girl.wav" WAVE
INDEX 01 00:00:00
TRACK 03 AUDIO
INDEX 00 01:41:37
FILE "03 - Hex Girls - Earth, Wind, Fire, And Air.wav" WAVE
INDEX 01 00:00:00
TRACK 04 AUDIO
INDEX 00 01:52:63
FILE "04 - Hex Girls - The Witch's Ghost.wav" WAVE
INDEX 01 00:00:00
TRACK 05 AUDIO
INDEX 00 03:09:20
FILE "05 - Hex Girls - It's A Mystery.wav" WAVE
INDEX 01 00:00:00
TRACK 06 AUDIO
INDEX 00 03:06:70
FILE "06 - Hex Girls - Scooby Snacks.wav" WAVE
INDEX 01 00:00:00
TRACK 07 AUDIO
INDEX 00 03:17:65
FILE "07 - Hex Girls - Zoinks!.wav" WAVE
INDEX 01 00:00:00
TRACK 08 AUDIO
INDEX 00 03:09:13
FILE "08 - Hex Girls - Those Meddlin' Kids.wav" WAVE
INDEX 01 00:00:00
TRACK 09 AUDIO
INDEX 00 03:17:20
FILE "09 - Luis Febre - Ghost Story.wav" WAVE
INDEX 01 00:00:00
TRACK 10 AUDIO
INDEX 00 03:12:00
FILE "10 - Joe Pizzulo - Gary Falcone , The Ghost Is Here.wav" WAVE
INDEX 01 00:00:00
TRACK 11 AUDIO
INDEX 00 02:20:30
FILE "11 - Joe Pizzulo - Gary Falcone , Terror Time.wav" WAVE
INDEX 01 00:00:00
TRACK 12 AUDIO
INDEX 00 02:53:17
FILE "12 - Various - Scooby-Doo, Where Are You (Instrumental Mix).wav" WAVE
INDEX 01 00:00:00
Скриншоты спектра частот
Download
Для скачивания .torrent файлов необходима регистрация
Сайт не распространяет и не хранит электронные версии произведений, а лишь предоставляет доступ к создаваемому пользователями каталогу ссылок на торрент-файлы, которые содержат только списки хеш-сумм
[Профиль]  [ЛС] 

bot · 05-Окт-17 22:01 (спустя 11 дней)

Тема была перенесена из форума Саундтреки к аниме (lossless) в форум Саундтреки к мультфильмам (lossy и lossless)
kasatkal
 

Kulavs

Стаж: 8 лет 7 месяцев

Сообщений: 35

Kulavs · 23-Июн-18 12:15 (спустя 8 месяцев)

[Цитировать] 

Раздайте, пожалуйста! Скорости нету.
[Профиль]  [ЛС] 
 
Ответить
Loading...
Error