(Score) Секс, ложь и видео / Sex, Lies, And Videotape (by Cliff Martinez) - 1989, FLAC (tracks+.cue), lossless

Страницы:  1

Ответить
Автор
Сообщение

Sarant

RG Soundtracks

Стаж: 8 лет 11 месяцев

Сообщений: 599

Sarant · 23-Июн-18 18:40 (5 месяцев 18 дней назад)

Секс, ложь и видео |
Sex, Lies, And Videotape

Жанр: Score
Композитор: Cliff Martinez
Год выпуска диска: 1989
Страна-производитель диска: U.K.
Издатель (лейбл): Virgin Records
Номер по каталогу: CDV 2604
Аудиокодек: FLAC (*.flac)
Тип рипа: tracks+.cue
Битрейт аудио: lossless
Продолжительность: 00:29:19
Источник: собственный рип
Наличие сканов в содержимом раздачи: да, 600 dpi, jpg
Треклист:
1.  Garbage (00:37) Written and performed by Mark Mangini
2. Looks Like a Tablecloth (04:01) Guitar samples provided by Jack Sherman
3. Take My Skirt Off (02:06)
4. Are You Comfortable (02:18)
5. Here We Go (02:16)
6. What Other Men...? (02:55)
7. Sniff the Jacket (03:25)
8. You've Got a Problem (07:04)
9. I'm Gonna Drawl (04:37) - Guitar samples provided by Jack Sherm
Лог создания рипа
Exact Audio Copy V1.3 from 2. September 2016
EAC extraction logfile from 23. June 2018, 16:46
Cliff Martinez / Sex, Lies, and Videotape
Used drive : ATAPI iHBS312 2 Adapter: 1 ID: 1
Read mode : Secure
Utilize accurate stream : Yes
Defeat audio cache : Yes
Make use of C2 pointers : No
Read offset correction : 6
Overread into Lead-In and Lead-Out : No
Fill up missing offset samples with silence : Yes
Delete leading and trailing silent blocks : No
Null samples used in CRC calculations : Yes
Used interface : Native Win32 interface for Win NT & 2000
Gap handling : Appended to previous track
Used output format : User Defined Encoder
Selected bitrate : 1024 kBit/s
Quality : High
Add ID3 tag : No
Command line compressor : C:\Program Files\Exact Audio Copy\Flac\flac.exe
Additional command line options : -V -8 -T "Genre=%genre%" -T "Artist=%artist%" -T "Title=%title%" -T "Album=%albumtitle%" -T "Date=%year%" -T "Tracknumber=%tracknr%" -T "Comment=%comment%" %source%
TOC of the extracted CD
Track | Start | Length | Start sector | End sector
---------------------------------------------------------
1 | 0:00.00 | 0:40.05 | 0 | 3004
2 | 0:40.05 | 4:05.00 | 3005 | 21379
3 | 4:45.05 | 2:08.12 | 21380 | 30991
4 | 6:53.17 | 2:19.73 | 30992 | 41489
5 | 9:13.15 | 2:17.22 | 41490 | 51786
6 | 11:30.37 | 3:00.05 | 51787 | 65291
7 | 14:30.42 | 3:28.23 | 65292 | 80914
8 | 17:58.65 | 7:06.50 | 80915 | 112914
9 | 25:05.40 | 4:38.27 | 112915 | 133791
Track 1
Filename F:\torrent\Sex_Lies_and Videotape_Cliff Martinez\score\01 Mark Mangini - Garbage.wav
Pre-gap length 0:00:02.00
Peak level 45.1 %
Extraction speed 3.1 X
Track quality 100.0 %
Test CRC 4844E9E6
Copy CRC 4844E9E6
Accurately ripped (confidence 7) [D30AECD3] (AR v2)
Copy OK
Track 2
Filename F:\torrent\Sex_Lies_and Videotape_Cliff Martinez\score\02 Cliff Martinez - Looks Like a Tablecloth.wav
Pre-gap length 0:00:01.35
Peak level 100.0 %
Extraction speed 4.6 X
Track quality 99.9 %
Test CRC 02807445
Copy CRC 02807445
Accurately ripped (confidence 7) [AA29D919] (AR v2)
Copy OK
Track 3
Filename F:\torrent\Sex_Lies_and Videotape_Cliff Martinez\score\03 Cliff Martinez - Take My Skirt Off.wav
Pre-gap length 0:00:03.73
Peak level 37.6 %
Extraction speed 4.0 X
Track quality 99.9 %
Test CRC 3AC2B318
Copy CRC 3AC2B318
Accurately ripped (confidence 7) [206C0AB3] (AR v2)
Copy OK
Track 4
Filename F:\torrent\Sex_Lies_and Videotape_Cliff Martinez\score\04 Cliff Martinez - Are You Comfortable.wav
Pre-gap length 0:00:02.55
Peak level 35.5 %
Extraction speed 5.7 X
Track quality 100.0 %
Test CRC CE2F12FE
Copy CRC CE2F12FE
Accurately ripped (confidence 7) [685F0985] (AR v2)
Copy OK
Track 5
Filename F:\torrent\Sex_Lies_and Videotape_Cliff Martinez\score\05 Cliff Martinez - Here We Go.wav
Pre-gap length 0:00:02.08
Peak level 47.6 %
Extraction speed 6.0 X
Track quality 100.0 %
Test CRC A46243EC
Copy CRC A46243EC
Accurately ripped (confidence 7) [F9B523AC] (AR v2)
Copy OK
Track 6
Filename F:\torrent\Sex_Lies_and Videotape_Cliff Martinez\score\06 Cliff Martinez - What Other Men....wav
Pre-gap length 0:00:01.65
Peak level 51.1 %
Extraction speed 6.5 X
Track quality 100.0 %
Test CRC 7C767F2C
Copy CRC 7C767F2C
Accurately ripped (confidence 7) [443BE5C4] (AR v2)
Copy OK
Track 7
Filename F:\torrent\Sex_Lies_and Videotape_Cliff Martinez\score\07 Cliff Martinez - Sniff the Jacket.wav
Pre-gap length 0:00:03.62
Peak level 25.3 %
Extraction speed 7.1 X
Track quality 100.0 %
Test CRC 7D5137B6
Copy CRC 7D5137B6
Accurately ripped (confidence 7) [1FDB8CD5] (AR v2)
Copy OK
Track 8
Filename F:\torrent\Sex_Lies_and Videotape_Cliff Martinez\score\08 Cliff Martinez - You've Got a Problem.wav
Pre-gap length 0:00:03.38
Peak level 39.3 %
Extraction speed 8.3 X
Track quality 100.0 %
Test CRC 9B132D28
Copy CRC 9B132D28
Accurately ripped (confidence 7) [0D97C928] (AR v2)
Copy OK
Track 9
Filename F:\torrent\Sex_Lies_and Videotape_Cliff Martinez\score\09 Cliff Martinez - I'm Gonna Drawl.wav
Pre-gap length 0:00:02.25
Peak level 72.1 %
Extraction speed 8.5 X
Track quality 100.0 %
Test CRC A206F5B1
Copy CRC A206F5B1
Accurately ripped (confidence 6) [E70B437F] (AR v2)
Copy OK
All tracks accurately ripped
No errors occurred
End of status report
---- CUETools DB Plugin V2.1.6
[CTDB TOCID: SZeOkfr.NGO9KDjzHRLbnx9C0i8-] found
Submit result: SZeOkfr.NGO9KDjzHRLbnx9C0i8- has been confirmed
Track | CTDB Status
1 | (5/5) Accurately ripped
2 | (5/5) Accurately ripped
3 | (5/5) Accurately ripped
4 | (5/5) Accurately ripped
5 | (5/5) Accurately ripped
6 | (5/5) Accurately ripped
7 | (5/5) Accurately ripped
8 | (5/5) Accurately ripped
9 | (5/5) Accurately ripped
==== Log checksum E5FE051D463DAC422362B9164AAE9DF727F9D356E9FF5F1345B5215D81713BF5 ====
Содержание индексной карты (.CUE)
REM GENRE Soundtrack
REM DATE 1989
REM DISCID 6A06F709
REM COMMENT "ExactAudioCopy v1.3"
PERFORMER "Cliff Martinez"
TITLE "Sex, Lies, and Videotape"
REM COMPOSER ""
FILE "01 Mark Mangini - Garbage.wav" WAVE
TRACK 01 AUDIO
TITLE "Garbage"
PERFORMER "Mark Mangini"
REM COMPOSER ""
INDEX 01 00:00:00
TRACK 02 AUDIO
TITLE "Looks Like a Tablecloth"
PERFORMER "Cliff Martinez"
REM COMPOSER ""
INDEX 00 00:38:45
FILE "02 Cliff Martinez - Looks Like a Tablecloth.wav" WAVE
INDEX 01 00:00:00
TRACK 03 AUDIO
TITLE "Take My Skirt Off"
PERFORMER "Cliff Martinez"
REM COMPOSER ""
INDEX 00 04:01:02
FILE "03 Cliff Martinez - Take My Skirt Off.wav" WAVE
INDEX 01 00:00:00
TRACK 04 AUDIO
TITLE "Are You Comfortable"
PERFORMER "Cliff Martinez"
REM COMPOSER ""
INDEX 00 02:05:32
FILE "04 Cliff Martinez - Are You Comfortable.wav" WAVE
INDEX 01 00:00:00
TRACK 05 AUDIO
TITLE "Here We Go"
PERFORMER "Cliff Martinez"
REM COMPOSER ""
INDEX 00 02:17:65
FILE "05 Cliff Martinez - Here We Go.wav" WAVE
INDEX 01 00:00:00
TRACK 06 AUDIO
TITLE "What Other Men...?"
PERFORMER "Cliff Martinez"
REM COMPOSER ""
INDEX 00 02:15:32
FILE "06 Cliff Martinez - What Other Men....wav" WAVE
INDEX 01 00:00:00
TRACK 07 AUDIO
TITLE "Sniff the Jacket"
PERFORMER "Cliff Martinez"
REM COMPOSER ""
INDEX 00 02:56:18
FILE "07 Cliff Martinez - Sniff the Jacket.wav" WAVE
INDEX 01 00:00:00
TRACK 08 AUDIO
TITLE "You've Got a Problem"
PERFORMER "Cliff Martinez"
REM COMPOSER ""
INDEX 00 03:24:60
FILE "08 Cliff Martinez - You've Got a Problem.wav" WAVE
INDEX 01 00:00:00
TRACK 09 AUDIO
TITLE "I'm Gonna Drawl"
PERFORMER "Cliff Martinez"
REM COMPOSER ""
INDEX 00 07:04:25
FILE "09 Cliff Martinez - I'm Gonna Drawl.wav" WAVE
INDEX 01 00:00:00
Download
Для скачивания .torrent файлов необходима регистрация
Сайт не распространяет и не хранит электронные версии произведений, а лишь предоставляет доступ к создаваемому пользователями каталогу ссылок на торрент-файлы, которые содержат только списки хеш-сумм
[Профиль]  [ЛС] 

kramskoi

Стаж: 10 лет 6 месяцев

Сообщений: 496


kramskoi · 23-Июн-18 23:44 (спустя 5 часов)

[Цитировать] 

by Jack Sherm - дописать.
[Профиль]  [ЛС] 
 
Ответить
Loading...
Error