(Jazz-Rock) [CD] W.I.N.S - W.I.N.S - 1995, FLAC (tracks+.cue), lossless

Страницы:  1

Ответить
Автор
Сообщение

andrew_kamsky

Top Seed 04* 320r

Стаж: 7 лет 9 месяцев

Сообщений: 678

andrew_kamsky · 10-Сен-18 18:33 (1 месяц 10 дней назад)

W.I.N.S / W.I.N.S
Жанр: Jazz-Rock
Носитель: CD
Год издания: 1995
Издатель (лейбл): Eastern Gale
Номер по каталогу: EGCJ-8005
Страна исполнителя (группы): Japan
Аудиокодек: FLAC (*.flac)
Тип рипа: tracks+.cue
Битрейт аудио: lossless
Продолжительность: 01:05:37
Источник (релизер): локальная сеть
Наличие сканов в содержимом раздачи: да
Треклист:
1 Dance Of The Harlequin
2 Moonstruck
3 Winds
4 Earth Dance
5 Delusion Area
6 Join 12
7 Siren's Voice
8 In Spiritual Echoes -yahhoo~!-
Лог создания рипа
Exact Audio Copy V0.99 prebeta 3 from 28. July 2007
EAC extraction logfile from 23. April 2008, 18:59
W.I.N.S / W.I.N.S
Used drive : TSSTcorpCD/DVDW TS-L532A Adapter: 1 ID: 1
Read mode : Secure
Utilize accurate stream : Yes
Defeat audio cache : Yes
Make use of C2 pointers : Yes
Combined read/write offset correction : 0
Overread into Lead-In and Lead-Out : No
Fill up missing offset samples with silence : Yes
Delete leading and trailing silent blocks : No
Null samples used in CRC calculations : Yes
Used interface : Installed external ASPI interface
Gap handling : Not detected, thus appended to previous track
Used output format : User Defined Encoder
Selected bitrate : 1024 kBit/s
Quality : High
Add ID3 tag : Yes
Command line compressor : C:\Program Files\Exact Audio Copy\FLAC\FLAC.EXE
Additional command line options : -6 -V -T "ARTIST=%a" -T "TITLE=%t" -T "ALBUM=%g" -T "DATE=%y" -T "TRACKNUMBER=%n" -T "GENRE=%m" -T "COMMENT=%e" %s -o %d
TOC of the extracted CD
Track | Start | Length | Start sector | End sector
---------------------------------------------------------
1 | 0:00.37 | 9:53.30 | 37 | 44541
2 | 9:53.67 | 11:46.10 | 44542 | 97501
3 | 21:40.02 | 6:41.60 | 97502 | 127636
4 | 28:21.62 | 6:09.17 | 127637 | 155328
5 | 34:31.04 | 6:09.30 | 155329 | 183033
6 | 40:40.34 | 10:21.38 | 183034 | 229646
7 | 51:01.72 | 6:49.62 | 229647 | 260383
8 | 57:51.59 | 7:45.68 | 260384 | 295326
Track 1
Filename C:\Documents and Settings\martin schotman\Mijn documenten\W.I.N.S - W.I.N.S - 01. DANCE OF THE HARLEQUIN .wav
Peak level 97.7 %
Track quality 100.0 %
Copy CRC 07EB0B49
Copy OK
Track 2
Filename C:\Documents and Settings\martin schotman\Mijn documenten\W.I.N.S - W.I.N.S - 02. MOONSTRUCK .wav
Peak level 97.7 %
Track quality 100.0 %
Copy CRC 110C95A8
Copy OK
Track 3
Filename C:\Documents and Settings\martin schotman\Mijn documenten\W.I.N.S - W.I.N.S - 03. WINDS .wav
Peak level 97.7 %
Track quality 100.0 %
Copy CRC 7098A544
Copy OK
Track 4
Filename C:\Documents and Settings\martin schotman\Mijn documenten\W.I.N.S - W.I.N.S - 04. EARTH DANCE .wav
Peak level 97.7 %
Track quality 100.0 %
Copy CRC 57A2AEF4
Copy OK
Track 5
Filename C:\Documents and Settings\martin schotman\Mijn documenten\W.I.N.S - W.I.N.S - 05. DELUSION AREA .wav
Peak level 97.7 %
Track quality 99.9 %
Copy CRC 1A45F986
Copy OK
Track 6
Filename C:\Documents and Settings\martin schotman\Mijn documenten\W.I.N.S - W.I.N.S - 06. JOIN 12 .wav
Peak level 97.7 %
Track quality 100.0 %
Copy CRC 6FD186DC
Copy OK
Track 7
Filename C:\Documents and Settings\martin schotman\Mijn documenten\W.I.N.S - W.I.N.S - 07. SIREN'S VOICE .wav
Peak level 97.7 %
Track quality 100.0 %
Copy CRC 251AFDE5
Copy OK
Track 8
Filename C:\Documents and Settings\martin schotman\Mijn documenten\W.I.N.S - W.I.N.S - 08. IN SPIRITUAL ECHOES -yahhoo-!- .wav
Peak level 97.7 %
Track quality 100.0 %
Copy CRC 5EC73E9C
Copy OK
No errors occurred
End of status report
Лог проверки качества
AUDIOCHECKER v2.0 beta (build 457) - by Dester - [email protected]
~~~~~~~~~~~~~~~~~~~~~~~~~~~~~~~~~~
-=== DO NOT EDIT THIS FILE! ===-
Path: ...\1995 - W.I.N.S
1 -=- 01. Dance of the Harlequin.flac -=- CDDA (100%)
2 -=- 02. Moonstruck.flac -=- CDDA (99%)
3 -=- 03. Winds.flac -=- CDDA (99%)
4 -=- 04. Earth Dance.flac -=- CDDA (100%)
5 -=- 05. Delusion Area.flac -=- CDDA (100%)
6 -=- 06. Join 12.flac -=- CDDA (100%)
7 -=- 07. Siren's Voice.flac -=- CDDA (100%)
8 -=- 08. In Spiritual Echoes -yahhoo~!-.flac -=- CDDA (100%)
Summary 99,75% CDDA
221970228
Download
Для скачивания .torrent файлов необходима регистрация
Сайт не распространяет и не хранит электронные версии произведений, а лишь предоставляет доступ к создаваемому пользователями каталогу ссылок на торрент-файлы, которые содержат только списки хеш-сумм
[Профиль]  [ЛС] 

wurensh

Moderator

Стаж: 8 лет 9 месяцев

Сообщений: 5268

wurensh · 11-Сен-18 00:55 (спустя 6 часов)

[Цитировать] 

andrew_kamsky писал(а):
75943008Read mode : Secure
Utilize accurate stream : Yes
Defeat audio cache : Yes
Make use of C2 pointers : Yes
Combined read/write offset correction : 0
Overread into Lead-In and Lead-Out : No
Fill up missing offset samples with silence : Yes
Delete leading and trailing silent blocks : No
Null samples used in CRC calculations : Yes
Used interface : Installed external ASPI interface
Gap handling : Not detected, thus appended to previous track
# сомнительно
[Профиль]  [ЛС] 
 
Ответить
Loading...
Error