(Fusion, Contemporary Jazz) [CD] Ricardo Silveira - Amazon Secrets - 1990, FLAC (image+.cue), lossless

Страницы:  1

Ответить
Автор
Сообщение

papa1954

Top Seed 09* 10240r

Стаж: 11 лет 9 месяцев

Сообщений: 16655

papa1954 · 07-Мар-15 19:34 (3 года 9 месяцев назад)

Ricardo Silveira - Amazon Secrets
Жанр: Fusion, Contemporary Jazz
Носитель: CD
Год издания: 1990
Издатель (лейбл): Verve Forecast
Номер по каталогу: 843 602-2
Аудиокодек: FLAC (*.flac)
Тип рипа: image+.cue
Битрейт аудио: lossless
Продолжительность: 49:05
Rip by bINkI
Наличие сканов в содержимом раздачи: да
Треклист:
01. 'Til Tomorrow (5:09)
02. Her Song (4:44)
03. Avec Elegance (4:16)
04. Let's Move On (4:01)
05. Backlash (5:09)
06. Amazon Secrets (5:30)
07. Moon And Star (Lua E Estrela) (4:32)
08. Green Line (3:43)
09. Good To Play (3:30)
10. Northeastern Dreams (2:25)
11. Marimba Dance (6:07)
 
Лог создания рипа
Exact Audio Copy V0.99 prebeta 5 from 4. May 2009
EAC extraction logfile from 10. March 2013, 15:40
Ricardo Silveira / Amazon Secrets
Used drive : PIONEER DVD-RW DVR-110D Adapter: 1 ID: 0
Read mode : Secure
Utilize accurate stream : Yes
Defeat audio cache : Yes
Make use of C2 pointers : No
Read offset correction : 48
Overread into Lead-In and Lead-Out : No
Fill up missing offset samples with silence : Yes
Delete leading and trailing silent blocks : No
Null samples used in CRC calculations : Yes
Used interface : Installed external ASPI interface
Used output format : Internal WAV Routines
Sample format : 44.100 Hz; 16 Bit; Stereo
TOC of the extracted CD
Track | Start | Length | Start sector | End sector
---------------------------------------------------------
1 | 0:00.32 | 5:09.05 | 32 | 23211
2 | 5:09.37 | 4:44.13 | 23212 | 44524
3 | 9:53.50 | 4:15.62 | 44525 | 63711
4 | 14:09.37 | 4:01.05 | 63712 | 81791
5 | 18:10.42 | 5:09.25 | 81792 | 104991
6 | 23:19.67 | 5:29.53 | 104992 | 129719
7 | 28:49.45 | 4:31.40 | 129720 | 150084
8 | 33:21.10 | 3:42.55 | 150085 | 166789
9 | 37:03.65 | 3:29.55 | 166790 | 182519
10 | 40:33.45 | 2:25.02 | 182520 | 193396
11 | 42:58.47 | 6:06.60 | 193397 | 220906
Range status and errors
Selected range
Filename D:\R\Ricardo Silveira - Amazon Secrets.wav
Peak level 100.0 %
Range quality 99.9 %
Test CRC E0B8C9C9
Copy CRC E0B8C9C9
Copy OK
No errors occurred
AccurateRip summary
Track 1 cannot be verified as accurate (confidence 3) [6B75748F], AccurateRip returned [FF8388D3]
Track 2 cannot be verified as accurate (confidence 3) [6AE832FA], AccurateRip returned [39453282]
Track 3 cannot be verified as accurate (confidence 3) [D69A63E1], AccurateRip returned [F5F64A1A]
Track 4 cannot be verified as accurate (confidence 3) [1874A1FC], AccurateRip returned [C189B57E]
Track 5 cannot be verified as accurate (confidence 3) [F7A5F1AE], AccurateRip returned [944C7ACF]
Track 6 cannot be verified as accurate (confidence 3) [A753CBF9], AccurateRip returned [25A3DE21]
Track 7 cannot be verified as accurate (confidence 3) [95D4BEA4], AccurateRip returned [CA2B60E1]
Track 8 cannot be verified as accurate (confidence 3) [D96BC53F], AccurateRip returned [8CD783A6]
Track 9 cannot be verified as accurate (confidence 3) [A425A12B], AccurateRip returned [F7FB6B03]
Track 10 cannot be verified as accurate (confidence 3) [FE957F84], AccurateRip returned [6851DEAB]
Track 11 cannot be verified as accurate (confidence 3) [099C9E28], AccurateRip returned [68CCCCC9]
No tracks could be verified as accurate
You may have a different pressing from the one(s) in the database
End of status report
Содержание индексной карты (.CUE)
REM GENRE Fusion
REM DATE 1990
REM DISCID 730B810B
REM COMMENT ExactAudioCopy v0.99pb5
CATALOG 0000000000000
PERFORMER "Ricardo Silveira"
TITLE "Amazon Secrets"
FILE "Ricardo Silveira - Amazon Secrets.flac" WAVE
TRACK 01 AUDIO
TITLE "'Til Tomorrow"
INDEX 00 00:00:00
INDEX 01 00:00:32
TRACK 02 AUDIO
TITLE "Her Song"
INDEX 00 05:07:20
INDEX 01 05:09:37
TRACK 03 AUDIO
TITLE "Avec Elegance"
INDEX 00 09:51:72
INDEX 01 09:53:50
TRACK 04 AUDIO
TITLE "Let's Move On"
INDEX 01 14:09:37
TRACK 05 AUDIO
TITLE "Backlash"
INDEX 00 18:10:22
INDEX 01 18:10:42
TRACK 06 AUDIO
TITLE "Amazon Secrets"
INDEX 00 23:17:72
INDEX 01 23:19:67
TRACK 07 AUDIO
TITLE "Moon And Star (Lua E Estrela)"
INDEX 00 28:48:02
INDEX 01 28:49:45
TRACK 08 AUDIO
TITLE "Green Line"
INDEX 00 33:20:07
INDEX 01 33:21:10
TRACK 09 AUDIO
TITLE "Good To Play"
INDEX 00 37:03:15
INDEX 01 37:03:65
TRACK 10 AUDIO
TITLE "Northeastern Dreams"
INDEX 00 40:32:55
INDEX 01 40:33:45
TRACK 11 AUDIO
TITLE "Marimba Dance"
INDEX 01 42:58:47
CUETools log
[CUETools log; Date: 07.03.2015 15:09:56; Version: 2.0.9]
Pregap length 00:00:32.
[CTDB TOCID: OelG_6wLkoz5crl0r2OKy7pKtyE-] disk not present in database.
[AccurateRip ID: 0014c714-00b254a0-730b810b] found.
Track [ CRC ] Status
01 [6b75748f] (00/12) No match
02 [6ae832fa] (00/12) No match
03 [d69a63e1] (00/12) No match
04 [1874a1fc] (00/12) No match
05 [f7a5f1ae] (00/12) No match
06 [a753cbf9] (00/12) No match
07 [95d4bea4] (00/12) No match
08 [d96bc53f] (00/12) No match
09 [a425a12b] (00/12) No match
10 [fe957f84] (00/12) No match
11 [099c9e28] (00/12) No match
Offsetted by 196:
01 [ff8388d3] (03/12) Accurately ripped
02 [39453282] (03/12) Accurately ripped
03 [f5f64a1a] (03/12) Accurately ripped
04 [c189b57e] (03/12) Accurately ripped
05 [944c7acf] (03/12) Accurately ripped
06 [25a3de21] (03/12) Accurately ripped
07 [ca2b60e1] (03/12) Accurately ripped
08 [8cd783a6] (03/12) Accurately ripped
09 [f7fb6b03] (03/12) Accurately ripped
10 [6851deab] (03/12) Accurately ripped
11 [68ccccc9] (03/12) Accurately ripped
Track Peak [ CRC32 ] [W/O NULL] [ LOG ]
-- 100,0 [E0B8C9C9] [1716E9E8] CRC32
01 97,2 [169AC502] [7CEE116E]
02 81,6 [EFD9A4E1] [AF210954]
03 94,9 [0EF43E33] [62340D71]
04 100,0 [F885F36F] [F1FB7637]
05 96,1 [A2C5B021] [BD42DF2B]
06 97,2 [0611AFED] [9D3445EA]
07 77,1 [B439B44B] [E98BEF00]
08 97,2 [B1A9BBBF] [8087C58F]
09 97,2 [1182406D] [9C2352BB]
10 59,0 [5BDA9238] [9674FBD9]
11 97,2 [A23026DC] [20FB7546]
Download
Для скачивания .torrent файлов необходима регистрация
Сайт не распространяет и не хранит электронные версии произведений, а лишь предоставляет доступ к создаваемому пользователями каталогу ссылок на торрент-файлы, которые содержат только списки хеш-сумм
[Профиль]  [ЛС] 

Darkman

Top Seed 05* 640r

Стаж: 10 лет 4 месяца

Сообщений: 10224

Darkman · 08-Мар-15 03:19 (спустя 7 часов)

[Цитировать] 

Этот рип когда то уже выставлялся на трекере ... тут ...
Но там уже мертво / ушло в Архив ...
[Профиль]  [ЛС] 

JohnParr

Стаж: 6 лет 3 месяца

Сообщений: 822


JohnParr · 08-Мар-15 12:57 (спустя 9 часов)

[Цитировать] 

А нет ни у кого альбома "Storyteller"?
[Профиль]  [ЛС] 

and_r_2009

Стаж: 9 лет 8 месяцев

Сообщений: 9


and_r_2009 · 21-Сен-18 17:20 (спустя 3 года 6 месяцев)

[Цитировать] 

papa1954
выйдете на раздачу!!!
[Профиль]  [ЛС] 
 
Ответить
Loading...
Error