(Fusion, Jazz-Rock) [CD] Miles Davis - Live In Tokyo 1975 (2CD) - 2015, FLAC (tracks+.cue), lossless

Страницы:  1

Ответить
Автор
Сообщение

papa1954

Top Seed 09* 10240r

Стаж: 11 лет 8 месяцев

Сообщений: 16651

papa1954 · 18-Фев-17 16:12 (1 год 9 месяцев назад)

Miles Davis - Live In Tokyo 1975 (2CD) Жанр: Fusion, Jazz-Rock
Носитель: CD
Год издания: 2015
Издатель (лейбл): Hi Hat
Номер по каталогу: HH2CD012
Аудиокодек: FLAC (*.flac)
Тип рипа: tracks+.cue
Битрейт аудио: lossless
Продолжительность: 01:19:59
Rip by ruskaval
Наличие сканов в содержимом раздачи: да
Disc One (55:55)
01. Prelude & Funk (21:48)
02. Maiysha (15:46)
03. Ife (18:22)
Disc Two (24:04)
01. Mtume (4:11)
02. Turnaround Phrase (5:20)
03. Tune In 5 (4:07)
04. Untitled (10:27)
Personnel:
Miles Davis - trumpet, organ
Sonny Fortune - alto & soprano sax, flute
Pete Cosey - guitar, synthesizer, kalimba, table percussion
Reggie Lucas - guitar
Michael Henderson - bass
James “Mtume” Heath (aka Foreman) - percussion, rhythm box
Al Foster - drums
Rec.: Shinjuku Kohseinenkin Hall, Tokyo, Japan, January 22, 1975.
 
Об альбоме (сборнике)
Massive electric Miles from the same Japanese tour that gave the world the Panagaea and Agharta albums – tracks that were recorded ten days before the concert that appeared on those records, with different songs as well! The music is a dark brew of funk, fusion, and some surprisingly spiritual currents – thanks to wonderful work from Sonny Fortune on alto, soprano sax, and flute – working here alongside guitarist Pete Cosey, who provides plenty of the fuzzier, freakier moments of the set – as does keyboardist Reggie Lucas! Al Foster's drumming is wonderful – and Michael Henderson's bass will blow you away if you only know his later smoother soul albums – but as usual, Miles is the star once he opens up his horn and steps into the darkness.
For those who prefer that electric phase in all its murk and madness, another tape from the vaults could be just the ticket instead. Live in Tokyo 1975 comes from a short time before Davis's retirement—a point when the music was at its funkiest and angriest, when he would slap a wah-wah effect on any instrument in sight and no amount of electric fuzz was too much. This one was recorded for a radio broadcast ten days before the famous concerts that produced Agharta (Columbia, 1975) and Pangaea (Columbia, 1976) and is similarly not recommended for the faint of heart.
This septet was well into the "deep African thing, a deep African-American groove, with a lot of emphasis on drums and rhythm" as Miles later described it, weaving earthy percussion and juiced-up rock into 80 minutes of primordial voodoo trance. By this point he had the band running as a well-oiled machine, able to direct dynamic arrangements, segues and stop-on-a-dime changes all in the moment. They spin out one dense churning groove after another, whether trading solos around loose structural frameworks or sometimes getting (again borrowing the Chief's words) "a lot of intricate shit … working off this one chord." He picks and chooses spots to dart in with a simple trumpet line or the odd stray note, then punches at the organ as if trying to exorcise his osteoarthritis pain by sheer force of sound amid the haze of medication and drugs.
The ghost of Jimi Hendrix is alive and well in the wailing of Pete Cosey and Reggie Lucas, while the drum/percussion team lays down a series of staggered rhythms thick enough that you'd need a machete to wade through. There isn't really a set list so much as a contiguous series of song sketches to explore. "Maiysha" starts out cool and airy before turning into some kind of tropical-themed nightmare; "Ife" skips the modulating bass line of the studio version and explores the more abstract sections instead, blending light flute with menacing organ before giving everyone some free space to blow.
The Tokyo show is a close sibling to those abovementioned albums and Dark Magus (Columbia, 1977), but of course each one has its own character. Live in Tokyo 1975 is perhaps more tight and lean, not quite as off-the-wall crazy as Pangaea or as loud and crowded as Dark Magus—thought not terribly far off either—and a most welcome complement for those of us who find this phase endlessly fresh all these decades later. After Gil Evans died, Davis always insisted his late friend hadn't truly gone away, not least because you could hear how much he'd affected the music of others. Vastly different as they are, both these releases still tell us the same thing about Miles Davis: he's not only still around someplace, he's still waiting for the rest of the world to catch up.
  
Disc One
Лог создания рипа
Exact Audio Copy V1.1 from 23. June 2015
EAC extraction logfile from 17. February 2017, 14:16
Miles Davis / Live In Tokyo 1975 (CD1)
Used drive : TSSTcorpCDDVDW SE-208DB Adapter: 1 ID: 1
Read mode : Secure
Utilize accurate stream : Yes
Defeat audio cache : Yes
Make use of C2 pointers : No
Read offset correction : 6
Overread into Lead-In and Lead-Out : No
Fill up missing offset samples with silence : Yes
Delete leading and trailing silent blocks : No
Null samples used in CRC calculations : Yes
Used interface : Native Win32 interface for Win NT & 2000
Gap handling : Appended to previous track
Used output format : User Defined Encoder
Selected bitrate : 1024 kBit/s
Quality : High
Add ID3 tag : No
Command line compressor : C:\Program Files (x86)\FLAC Frontend\tools\flac.exe
Additional command line options : -8 -V -T "ARTIST=%artist%" -T "TITLE=%title%" -T "ALBUM=%albumtitle%" -T "DATE=%year%" -T "TRACKNUMBER=%tracknr%" -T "TOTALTRACKS=%numtracks%" -T "GENRE=%genre%" -T "ALBUMARTIST=%albumartist%" -T "ALBUM ARTIST=%albumartist%" -T "COMMENT=EAC Secure Mode, Test & Copy, AccurateRip, FLAC -8" %source%
TOC of the extracted CD
Track | Start | Length | Start sector | End sector
---------------------------------------------------------
1 | 0:00.00 | 21:47.50 | 0 | 98074
2 | 21:47.50 | 15:45.41 | 98075 | 168990
3 | 37:33.16 | 18:21.51 | 168991 | 251616
Track 1
Filename D:\_EAC\Miles Davis - Live In Tokyo 1975 (2015) [FLAC] {2CD Hi Hat HH2CD012}\CD1\01 - Prelude & Funk.wav
Pre-gap length 0:00:02.00
Peak level 99.9 %
Extraction speed 1.6 X
Track quality 100.0 %
Test CRC 8C1D60B3
Copy CRC 8C1D60B3
Cannot be verified as accurate (confidence 4) [9BFFC647], AccurateRip returned [2BC8BE19] (AR v2)
Copy OK
Track 2
Filename D:\_EAC\Miles Davis - Live In Tokyo 1975 (2015) [FLAC] {2CD Hi Hat HH2CD012}\CD1\02 - Maiysha.wav
Peak level 99.9 %
Extraction speed 2.1 X
Track quality 99.9 %
Test CRC 58DFF2EA
Copy CRC 58DFF2EA
Cannot be verified as accurate (confidence 4) [E349AC6C], AccurateRip returned [ADB934FB] (AR v2)
Copy OK
Track 3
Filename D:\_EAC\Miles Davis - Live In Tokyo 1975 (2015) [FLAC] {2CD Hi Hat HH2CD012}\CD1\03 - Ife.wav
Peak level 99.9 %
Extraction speed 2.5 X
Track quality 100.0 %
Test CRC 3C26051A
Copy CRC 3C26051A
Cannot be verified as accurate (confidence 4) [807E503A], AccurateRip returned [093D6C3A] (AR v2)
Copy OK
No tracks could be verified as accurate
You may have a different pressing from the one(s) in the database
No errors occurred
End of status report
==== Log checksum A2A5E89B94EEF0BF88A81B4C2E46C4679A45A0401FA675CDC3785D46668B5510 ====
Содержание индексной карты (.CUE)
REM GENRE Jazz
REM DATE 2015
REM DISCID 1D0D1A03
REM COMMENT "ExactAudioCopy v1.1"
PERFORMER "Miles Davis"
TITLE "Live In Tokyo 1975 (CD1)"
FILE "01 - Prelude & Funk.wav" WAVE
TRACK 01 AUDIO
TITLE "Prelude & Funk"
PERFORMER "Miles Davis"
INDEX 01 00:00:00
FILE "02 - Maiysha.wav" WAVE
TRACK 02 AUDIO
TITLE "Maiysha"
PERFORMER "Miles Davis"
INDEX 01 00:00:00
FILE "03 - Ife.wav" WAVE
TRACK 03 AUDIO
TITLE "Ife"
PERFORMER "Miles Davis"
INDEX 01 00:00:00
Disc Two
Лог создания рипа
Exact Audio Copy V1.1 from 23. June 2015
EAC extraction logfile from 17. February 2017, 14:56
MIles Davis / Live In Tokyo 1975 (CD2)
Used drive : TSSTcorpCDDVDW SE-208DB Adapter: 1 ID: 1
Read mode : Secure
Utilize accurate stream : Yes
Defeat audio cache : Yes
Make use of C2 pointers : No
Read offset correction : 6
Overread into Lead-In and Lead-Out : No
Fill up missing offset samples with silence : Yes
Delete leading and trailing silent blocks : No
Null samples used in CRC calculations : Yes
Used interface : Native Win32 interface for Win NT & 2000
Gap handling : Appended to previous track
Used output format : User Defined Encoder
Selected bitrate : 1024 kBit/s
Quality : High
Add ID3 tag : No
Command line compressor : C:\Program Files (x86)\FLAC Frontend\tools\flac.exe
Additional command line options : -8 -V -T "ARTIST=%artist%" -T "TITLE=%title%" -T "ALBUM=%albumtitle%" -T "DATE=%year%" -T "TRACKNUMBER=%tracknr%" -T "TOTALTRACKS=%numtracks%" -T "GENRE=%genre%" -T "ALBUMARTIST=%albumartist%" -T "ALBUM ARTIST=%albumartist%" -T "COMMENT=EAC Secure Mode, Test & Copy, AccurateRip, FLAC -8" %source%
TOC of the extracted CD
Track | Start | Length | Start sector | End sector
---------------------------------------------------------
1 | 0:00.00 | 4:11.37 | 0 | 18861
2 | 4:11.37 | 5:19.49 | 18862 | 42835
3 | 9:31.11 | 4:06.56 | 42836 | 61341
4 | 13:37.67 | 10:26.38 | 61342 | 108329
Track 1
Filename D:\_EAC\Miles Davis - Live In Tokyo 1975 (2015) [FLAC] {2CD Hi Hat HH2CD012}\CD2\01 - Mtume.wav
Pre-gap length 0:00:02.00
Peak level 99.9 %
Extraction speed 1.2 X
Track quality 100.0 %
Test CRC 25931E4B
Copy CRC 25931E4B
Cannot be verified as accurate (confidence 4) [C14C8BB0], AccurateRip returned [1DB690F5] (AR v2)
Copy OK
Track 2
Filename D:\_EAC\Miles Davis - Live In Tokyo 1975 (2015) [FLAC] {2CD Hi Hat HH2CD012}\CD2\02 - Turnaround Phrase.wav
Peak level 99.9 %
Extraction speed 1.4 X
Track quality 100.0 %
Test CRC DA2C2240
Copy CRC DA2C2240
Cannot be verified as accurate (confidence 4) [A4CA5305], AccurateRip returned [03AED98B] (AR v2)
Copy OK
Track 3
Filename D:\_EAC\Miles Davis - Live In Tokyo 1975 (2015) [FLAC] {2CD Hi Hat HH2CD012}\CD2\03 - Tune In 5.wav
Peak level 99.9 %
Extraction speed 1.5 X
Track quality 100.0 %
Test CRC CEF03916
Copy CRC CEF03916
Cannot be verified as accurate (confidence 4) [300C459D], AccurateRip returned [7B77F536] (AR v2)
Copy OK
Track 4
Filename D:\_EAC\Miles Davis - Live In Tokyo 1975 (2015) [FLAC] {2CD Hi Hat HH2CD012}\CD2\04 - Untitled.wav
Peak level 99.9 %
Extraction speed 1.7 X
Track quality 99.9 %
Test CRC 502A376D
Copy CRC 502A376D
Cannot be verified as accurate (confidence 4) [64C3E0C6], AccurateRip returned [D30B5C25] (AR v2)
Copy OK
No tracks could be verified as accurate
You may have a different pressing from the one(s) in the database
No errors occurred
End of status report
==== Log checksum 5C9D4B06169B6BE6A38C03A29094F00382DB9197C870C70AFE000F0EE45AAEDB ====
Содержание индексной карты (.CUE)
REM GENRE Jazz
REM DATE 2015
REM DISCID 2D05A404
REM COMMENT "ExactAudioCopy v1.1"
PERFORMER "Miles Davis"
TITLE "Live In Tokyo 1975 (CD2)"
FILE "01 - Mtume.wav" WAVE
TRACK 01 AUDIO
TITLE "Mtume"
PERFORMER "Miles Davis"
INDEX 01 00:00:00
FILE "02 - Turnaround Phrase.wav" WAVE
TRACK 02 AUDIO
TITLE "Turnaround Phrase"
PERFORMER "Miles Davis"
INDEX 01 00:00:00
FILE "03 - Tune In 5.wav" WAVE
TRACK 03 AUDIO
TITLE "Tune In 5"
PERFORMER "Miles Davis"
INDEX 01 00:00:00
FILE "04 - Untitled.wav" WAVE
TRACK 04 AUDIO
TITLE "Untitled"
PERFORMER "Miles Davis"
INDEX 01 00:00:00
Download
Для скачивания .torrent файлов необходима регистрация
Сайт не распространяет и не хранит электронные версии произведений, а лишь предоставляет доступ к создаваемому пользователями каталогу ссылок на торрент-файлы, которые содержат только списки хеш-сумм
[Профиль]  [ЛС] 

adjamov

Стаж: 8 лет 8 месяцев

Сообщений: 10


adjamov · 19-Мар-17 16:04 (спустя 1 месяц)

[Цитировать] 

спасибо, друг! самый мрачный, мощный и недооцененный период Майлса. так бы он сыграл с Хендриксом.
[Профиль]  [ЛС] 

Skylerok

Стаж: 6 лет 7 месяцев

Сообщений: 39

Skylerok · 21-Сен-18 19:39 (спустя 1 год 6 месяцев)

[Цитировать] 

отличный лайв!
[Профиль]  [ЛС] 
 
Ответить
Loading...
Error