Загадка дьявола / Akuma no Riddle / Riddle Story of Devil (Кусакава Кэйдзё) [TV] [12 из 12] [без хардсаба] [RUS(int), JAP+SUB] [2014, приключения, драма, BDRip] [HWP]

Страницы:  1

Ответить
Автор
Сообщение

Yugosan

Top Bonus 04* 3TB

Стаж: 5 лет 10 месяцев

Сообщений: 113

Yugosan · 18-Сен-18 22:00 (2 месяца 24 дня назад, ред. 23-Сен-18 14:12)


Год выпуска: 2014
Страна: Япония
Жанр: приключения, драма
Продолжительность: ТВ, 12 эп. по 24 мин.
Выпуск: c 04.04.2014 по 20.06.2014
Режиссер: Кусакава Кэйдзё
Студия: Diomedea
Описание:
Как известно, мораль нужна лишь для послушного плебса, у хозяев жизни иные законы и развлечения. В престижной девичьей академии Мёдзё создается новый 10-й класс, «Черная группа», будущая арена жестокой игры. Официально туда собирают юных знаменитостей, что почти правда: они – лучшие убийцы в своем поколении. При этом кто-то вышел из солидной тайной школы, другие продолжают семейный бизнес, есть и талантливые любительницы, которым тоже дали шанс. Цель киллерам известна – их одноклассница Хару Итиносэ, улыбчивая девушка с темным прошлым. Главный приз один, зато какой – победительница получит все, что пожелает!
Еще Конфуций говорил: «действие без должного церемониала есть хамство», поэтому игра 12 убийц будет проходить по строгим правилам. Во-первых, каждая имеет лишь одну попытку. Во-вторых, объект надо предупредить лично, после чего на «работу» дается 48 часов, не успела – значит опоздала. В-третьих, вовлекать можно только «своих»: кто засветится перед посторонними - выбывает сразу. Главная героиня, отлично подготовленная, но еще не убивавшая Токаку Адзума посмотрела на весь этот цирк и решила сыграть парадоксально – на стороне жертвы, кстати, соседки по комнате. Не зря хитроумный сэнсэй Кайба мучает свою ученицу буддистскими коанами – Токаку начала понимать, что, разгадав загадку Хару Итиносэ, получит куда больше, чем исполняя заказы чужого дяди!
© Hollow, World Art
Имя Токаку значит «обычная, обыкновенная».
Информационные ссылки: AniDB || World Art || MAL
Качество: BDRip (DS of [Salender-Raws])
Тип релиза: Без хардсаба
Формат: AVI
Энкод: Yugosan
Видео: 704x396 (1.78:1), 23.976 fps, XviD build 73 ~1198 kbps avg, 0.18 bit/pixel
Аудио 1: 48 kHz, AC3 Dolby Digital, 2/0 (L,R) ch, ~192 kbps., язык русский (в составе контейнера); озвучка: трёхголосая Mr.Dareuds & NesTea & Viki
Аудио 2: 48 kHz, AC3 Dolby Digital, 2/0 (L,R) ch, ~192 kbps., язык русский (в составе контейнера); озвучка: трёхголосая BalFor & Oriko & Kiara_Laine
Аудио 3: 48 kHz, AC3 Dolby Digital, 2/0 (L,R) ch, ~192 kbps., язык японский, оригинал
Субтитры:
Timecraft (полные/вспомогательные)
переводчик: Nachtwandler, редактор: Buka63, перевод песен: Zool

Список эпизодов
01. The World Is Full of ___
02. What Dwells in Your Heart?
03. What`s Red, but Isn`t Red?
04. What Comes Suddenly and Never Leaves?
05. How Do You Get a Bird Out of Its Cage?
06. Every Pretty Flower Has Its ___
07. What Can You Never Outrun?
08. Which Gatekeeper Is the One Who Lies?
09. What Dwells in Your Heart? (Make-Up Test)
10. Who Is the Queen?
11. How to Tell Apart a `Felicitation` from a `Curse`
12. Therefore, the World Is Full of ___
Скриншоты
Отличия от других раздач
Подробные тех. данные
Код:
General
Complete name                            : D:\Akuma no Riddle BDRip\Akuma no Riddle 01.avi
Format                                   : AVI
Format/Info                              : Audio Video Interleave
File size                                : 304 Мбайт
Duration                                 : 23 м. 40 с.
Overall bit rate                         : 1795 Кбит/сек
Writing application                      : VirtualDubMod 1.5.10.3 | www.virtualdub-fr.org || (build 2550/release)
Writing library                          : VirtualDubMod build 2550/release
Video
ID                                       : 0
Format                                   : MPEG-4 Visual
Format profile                           : Advanced [email protected]
Format settings                          : BVOP2
Format settings, BVOP                    : 2
Format settings, QPel                    : Нет
Format settings, GMC                     : Без точки перехода
Format settings, Matrix                  : Default (H.263)
Codec ID                                 : XVID
Codec ID/Hint                            : XviD
Duration                                 : 23 м. 40 с.
Bit rate                                 : 1200 Кбит/сек
Width                                    : 704 пикселя
Height                                   : 396 пикселей
Display aspect ratio                     : 16:9
Frame rate                               : 23,976 (24000/1001) кадра/сек
Color space                              : YUV
Chroma subsampling                       : 4:2:0
Bit depth                                : 8 бит
Scan type                                : Прогрессивная
Compression mode                         : С потерями
Bits/(Pixel*Frame)                       : 0.179
Stream size                              : 203 Мбайт (67%)
Writing library                          : XviD 73
Audio #1
ID                                       : 1
Format                                   : AC-3
Format/Info                              : Audio Coding 3
Codec ID                                 : 2000
Duration                                 : 23 м. 40 с.
Bit rate mode                            : Постоянный
Bit rate                                 : 192 Кбит/сек
Channel(s)                               : 2 канала
Channel positions                        : Front: L R
Sampling rate                            : 48,0 КГц
Frame rate                               : 31,250 кадров/сек (1536 SPF)
Bit depth                                : 16 бит
Compression mode                         : С потерями
Stream size                              : 32,5 Мбайт (11%)
Alignment                                : Разделение по промежуткам
Interleave, duration                     : 42  мс. (1,00 видеокадр)
Interleave, preload duration             : 500  мс.
Service kind                             : Complete Main
Audio #2
ID                                       : 2
Format                                   : AC-3
Format/Info                              : Audio Coding 3
Codec ID                                 : 2000
Duration                                 : 23 м. 40 с.
Bit rate mode                            : Постоянный
Bit rate                                 : 192 Кбит/сек
Channel(s)                               : 2 канала
Channel positions                        : Front: L R
Sampling rate                            : 48,0 КГц
Frame rate                               : 31,250 кадров/сек (1536 SPF)
Bit depth                                : 16 бит
Compression mode                         : С потерями
Stream size                              : 32,5 Мбайт (11%)
Alignment                                : Разделение по промежуткам
Interleave, duration                     : 42  мс. (1,00 видеокадр)
Interleave, preload duration             : 500  мс.
Service kind                             : Complete Main
Audio #3
ID                                       : 3
Format                                   : AC-3
Format/Info                              : Audio Coding 3
Codec ID                                 : 2000
Duration                                 : 23 м. 40 с.
Bit rate mode                            : Постоянный
Bit rate                                 : 192 Кбит/сек
Channel(s)                               : 2 канала
Channel positions                        : Front: L R
Sampling rate                            : 48,0 КГц
Frame rate                               : 31,250 кадров/сек (1536 SPF)
Bit depth                                : 16 бит
Compression mode                         : С потерями
Stream size                              : 32,5 Мбайт (11%)
Alignment                                : Разделение по промежуткам
Interleave, duration                     : 42  мс. (1,00 видеокадр)
Interleave, preload duration             : 500  мс.
Service kind                             : Complete Main
Сэмпл: http://multi-up.com/1209299
Download
Для скачивания .torrent файлов необходима регистрация
Сайт не распространяет и не хранит электронные версии произведений, а лишь предоставляет доступ к создаваемому пользователями каталогу ссылок на торрент-файлы, которые содержат только списки хеш-сумм
[Профиль]  [ЛС] 

Nanvel

VIP (Заслуженный)

Стаж: 11 лет 3 месяца

Сообщений: 4354

Nanvel · 18-Сен-18 22:20 (спустя 19 мин., ред. 18-Сен-18 22:20)

[Цитировать] 

Сабы должны быть в SRT для такой раздачи.
Скриншоты не соответствуют заявленному разрешению.
Уточните студию, жанры на В-А.
[Профиль]  [ЛС] 

Yugosan

Top Bonus 04* 3TB

Стаж: 5 лет 10 месяцев

Сообщений: 113

Yugosan · 21-Сен-18 20:12 (спустя 2 дня 21 час)

[Цитировать] 

Nanvel писал(а):
75985132Сабы должны быть в SRT для такой раздачи.
Скриншоты не соответствуют заявленному разрешению.
Уточните студию, жанры на В-А.
Исправил недочёты
[Профиль]  [ЛС] 
 
Ответить
Loading...
Error