(Fusion) Weather Report - Weather Report - 1971, FLAC (tracks+.cue), lossless

Страницы:  1

Ответить
Автор
Сообщение

lanson

Top Seed 04* 320r

Стаж: 10 лет 9 месяцев

Сообщений: 715

lanson · 12-Июн-09 08:39 (9 лет 4 месяца назад)

Weather Report - Weather Report
Жанр: Fusion
Год выпуска диска: 1971
Производитель диска: USA
Аудио кодек: FLAC
Тип рипа: tracks+.cue
Битрейт аудио: lossless
Продолжительность: 40:10
Трэклист:
01 Milky Way 2:34
02 Umbrellas 3:28
03 Seventh Arrow 5:24
04 Orange Lady 8:44
05 Morning Lake 4:27
06 Waterfall 6:21
07 Tears 3:27
08 Eurydice 5:45
Доп. информация: Log
скрытый текст
EAC extraction logfile from 14. May 2009, 17:37 for CD
Weather Report / Weather Report
Used drive : SONY CD-RW CRX195E1 Adapter: 1 ID: 1
Read mode : Secure with NO C2, accurate stream, disable cache
Read offset correction : 12
Overread into Lead-In and Lead-Out : No
Used output format : C:\Program Files\FLAC\flac.exe (User Defined Encoder)
128 kBit/s
Additional command line options : -V -8 -T "artist=%a" -T "title=%t" -T "album=%g" -T "date=%y" -T "tracknumber=%n" -T "genre=%m" %s
Other options :
Fill up missing offset samples with silence : Yes
Delete leading and trailing silent blocks : No
Native Win32 interface for Win NT & 2000
Track 1
Filename C:\uploads\Weather Report - Weather Report\01 - Milky Way.wav
Pre-gap length 0:00:02.00
Peak level 96.8 %
Track quality 99.9 %
Test CRC E1718EF6
Copy CRC E1718EF6
Copy OK
Track 2
Filename C:\uploads\Weather Report - Weather Report\02 - Umbrellas.wav
Pre-gap length 0:00:02.82
Peak level 97.7 %
Track quality 100.0 %
Test CRC 4E188A96
Copy CRC 4E188A96
Copy OK
Track 3
Filename C:\uploads\Weather Report - Weather Report\03 - Seventh Arrow.wav
Pre-gap length 0:00:02.82
Peak level 97.7 %
Track quality 100.0 %
Test CRC BCBB6C44
Copy CRC BCBB6C44
Copy OK
Track 4
Filename C:\uploads\Weather Report - Weather Report\04 - Orange Lady.wav
Pre-gap length 0:00:02.84
Peak level 97.7 %
Track quality 100.0 %
Test CRC 38F20F02
Copy CRC 38F20F02
Copy OK
Track 5
Filename C:\uploads\Weather Report - Weather Report\05 - Morning Lake.wav
Pre-gap length 0:00:02.84
Peak level 81.2 %
Track quality 100.0 %
Test CRC E6C4E80B
Copy CRC E6C4E80B
Copy OK
Track 6
Filename C:\uploads\Weather Report - Weather Report\06 - Waterfall.wav
Pre-gap length 0:00:02.84
Peak level 82.6 %
Track quality 100.0 %
Test CRC DE81C4CD
Copy CRC DE81C4CD
Copy OK
Track 7
Filename C:\uploads\Weather Report - Weather Report\07 - Tears.wav
Pre-gap length 0:00:02.82
Peak level 97.7 %
Track quality 100.0 %
Test CRC 4D5AFC92
Copy CRC 4D5AFC92
Copy OK
Track 8
Filename C:\uploads\Weather Report - Weather Report\08 - Eurydice.wav
Pre-gap length 0:00:02.84
Peak level 97.7 %
Track quality 100.0 %
Test CRC 69237BC6
Copy CRC 69237BC6
Copy OK
No errors occured
End of status report
Источник - вата
Download
Для скачивания .torrent файлов необходима регистрация
Сайт не распространяет и не хранит электронные версии произведений, а лишь предоставляет доступ к создаваемому пользователями каталогу ссылок на торрент-файлы, которые содержат только списки хеш-сумм
[Профиль]  [ЛС] 

karobo

Стаж: 7 лет 1 месяц

Сообщений: 48

karobo · 08-Май-13 15:18 (спустя 3 года 10 месяцев, ред. 08-Май-13 15:18)

[Цитировать] 

1992 COLUMBIA/LEGACY # CK 48824
скрытый текст
foobar2000 1.2.5 / Dynamic Range Meter 1.1.1
log date: 2013-05-08 14:13:10
--------------------------------------------------------------------------------
Analyzed: Weather Report / Weather Report
--------------------------------------------------------------------------------
DR Peak RMS Duration Track
--------------------------------------------------------------------------------
DR12 -0.28 dB -16.96 dB 2:34 01-Milky Way
DR10 -0.20 dB -13.81 dB 3:28 02-Umbrellas
DR10 -0.20 dB -12.49 dB 5:24 03-Seventh Arrow
DR11 -0.20 dB -14.94 dB 8:44 04-Orange Lady
DR10 -1.80 dB -17.13 dB 4:27 05-Morning Lake
DR10 -1.66 dB -15.33 dB 6:21 06-Waterfall
DR10 -0.20 dB -12.46 dB 3:27 07-Tears
DR11 -0.20 dB -13.79 dB 5:45 08-Eurydice
--------------------------------------------------------------------------------
Number of tracks: 8
Official DR value: DR10
Samplerate: 44100 Hz
Channels: 2
Bits per sample: 16
Bitrate: 853 kbps
Codec: FLAC
================================================================================
[Профиль]  [ЛС] 

Фаker

Стаж: 7 лет

Сообщений: 4655

Фаker · 23-Сен-18 19:55 (спустя 5 лет 4 месяца)

[Цитировать] 

Альбом, честно сказать, ни рыба ни мясо, но для дебюта пойдёт. Тем более, дальше у них будут прекрасные высоты.
[Профиль]  [ЛС] 

JohnParr

Стаж: 6 лет 2 месяца

Сообщений: 809


JohnParr · 24-Сен-18 09:52 (спустя 13 часов)

[Цитировать] 

В таком же неремастированном издании недостающие поиметь бы... А то мне ремастеры ну никак не катят...
[Профиль]  [ЛС] 
 
Ответить
Loading...
Error