Illidiance - Live @ Kasta club, Moscow (26.06.2011) [MXN] ~Full Length~ (edit) [Cyber-Metal, CAMRip]

Страницы:  1

Ответить
Автор
Сообщение

MXN5

Top Seed 03* 160r

Стаж: 8 лет 10 месяцев

Сообщений: 342

MXN5 · 23-Янв-12 13:33 (6 лет 9 месяцев назад, ред. 23-Янв-12 13:39)

ILLIDIANCE
Live @ KASTA club, Moscow (26.06.2011)
~Full Length~
Страна: Russia
Жанр: Cyber-Metal
Продолжительность: 54:04
Камера: [MXN]
Описание: http://vkontakte.ru/event27120165
Треклист:
1. Intro
2. Infected
3. Critical Damage
4. Breaking The Limit
5. Open Your Eyes (Guano Apes cover)
6. StripShow (Mirabelle & Kris Cyber-Chaos)
7. New Millenium Crushers
8. I Want To Believe (w/Guitar solo)
9. Cybergore Generation
10. Cybernesis (feat. Ghost)
11. Razor To The Skin
12. "Cyclone" Drum Solo
13. Bad Romance (Lady Gaga cover)
YouTube Full Playlist
Доп. информация:
Media Info
General
Complete name : E:\ILLIDIANCE - Live @ KASTA club, Moscow (26.06.2011) [MXN] ~Full Length~ (edit).avi
Format : AVI
Format/Info : Audio Video Interleave
File size : 862 MiB
Duration : 54mn 4s
Overall bit rate : 2 229 Kbps
Writing application : MEncoder Sherpya-SVN-r30075-4.2.5
Writing library : MPlayer
Video
ID : 0
Format : MPEG-4 Visual
Format profile : [email protected]
Format settings, BVOP : No
Format settings, QPel : No
Format settings, GMC : No warppoints
Format settings, Matrix : Default (H.263)
Codec ID : XVID
Codec ID/Hint : XviD
Duration : 54mn 4s
Bit rate : 1 998 Kbps
Width : 720 pixels
Height : 432 pixels
Display aspect ratio : 1.667
Frame rate : 25.000 fps
Color space : YUV
Chroma subsampling : 4:2:0
Bit depth : 8 bits
Scan type : Progressive
Bits/(Pixel*Frame) : 0.257
Stream size : 773 MiB (90%)
Writing library : XviD 1.2.1 (UTC 2008-12-04)
Audio
ID : 1
Format : MPEG Audio
Format version : Version 1
Format profile : Layer 3
Mode : Joint stereo
Codec ID : 55
Codec ID/Hint : MP3
Duration : 54mn 4s
Bit rate mode : Variable
Bit rate : 218 Kbps
Channel(s) : 2 channels
Sampling rate : 44.1 KHz
Stream size : 84.5 MiB (10%)
Alignment : Aligned on interleaves
Interleave, duration : 26 ms (0.65 video frame)
Interleave, preload duration : 588 ms
Качество: CAMRip
Контейнер: AVI
Видео кодек: XviD
Аудио кодек: MP3
Видео: Xvid 720x432 25.00fps 1998kbps
Аудио: MPEG Audio Layer 3 44100Hz stereo 218kbps
Раскадровка
Скриншоты
Download
Для скачивания .torrent файлов необходима регистрация
Сайт не распространяет и не хранит электронные версии произведений, а лишь предоставляет доступ к создаваемому пользователями каталогу ссылок на торрент-файлы, которые содержат только списки хеш-сумм
[Профиль]  [ЛС] 

brasher

Стаж: 9 лет 8 месяцев

Сообщений: 25


brasher · 01-Окт-18 18:46 (спустя 6 лет 8 месяцев)

[Цитировать] 

Музыка у ребят зачотная, а качество звука на видео полное говно. Не ужели не записать нормально было? Еще и шоу какое то мутное... шалавы с сиськами зачем то? Короче херь раздача.
[Профиль]  [ЛС] 
 
Ответить
Loading...
Error