(Детская музыка) Волшебники двора - Волшебная пластинка - 2010, FLAC (image+.cue), lossless

Страницы:  1

Ответить
Автор
Сообщение

rmb_rmb

VIP (Заслуженный)

Стаж: 10 лет 2 месяца

Сообщений: 3484

rmb_rmb · 20-Ноя-10 22:43 (7 лет 11 месяцев назад, ред. 20-Ноя-10 22:58)

Волшебники двора - Волшебная пластинка
Жанр: Детская музыка
Год выпуска диска: 2010
Производитель диска: Россия
Лейбл: CD Land
Номер по каталогу: CDLREC 5482010 CD
Аудио кодек: FLAC
Тип рипа: image+.cue
Битрейт аудио: lossless
Продолжительность: 54:51
Источник: собственный диск
Полиграфия: в полном комплекте в раздаче

Треклист:
01. Соло на трубе
02. Валентина
03. Хорошее настроение
04. Бибика
05. Там, где Новый год
06. Спит ангел
07. Лови лето
08. Любовь заела пацанов
09. Алло
10. Закаты алые
11. Россия, мы дети твои
12. Капитошка
13. Капитошка (японская версия)
14. Хорошее настроение (караоке)
15. Бибика (караоке)
16. Капитошка (караоке)
17. Мегамикс


back cd

отчет EAC
Exact Audio Copy V0.99 prebeta 5 from 4. May 2009
Отчёт EAC об извлечении, выполненном 20. ноября 2010, 22:25
Волшебники Двора / Волшебная пластинка
Дисковод: ASUS DRW-24B1ST Adapter: 1 ID: 0
Режим чтения : Достоверность
Использование точного потока : Да
Отключение кэша аудио : Да
Использование указателей C2 : Нет
Коррекция смещения при чтении : 6
Способность читать области Lead-in и Lead-out : Нет
Заполнение пропущенных сэмплов тишиной : Да
Удаление блоков с тишиной в начале и конце : Нет
При вычислениях CRC использовались нулевые сэмплы : Да
Интерфейс : Встроенный Win32-интерфейс для Win NT/2000
Выходной формат : Внутренние WAV-операции
Формат сэмплов : 44.100 Гц; 16 бит; стерео
TOC извлечённого CD
Трек | Старт | Длительность | Начальный сектор | Конечный сектор
---------------------------------------------------------------------
1 | 0:00.00 | 2:58.48 | 0 | 13397
2 | 2:58.48 | 3:04.27 | 13398 | 27224
3 | 6:03.00 | 2:49.12 | 27225 | 39911
4 | 8:52.12 | 2:51.33 | 39912 | 52769
5 | 11:43.45 | 2:47.66 | 52770 | 65360
6 | 14:31.36 | 2:56.30 | 65361 | 78590
7 | 17:27.66 | 3:00.70 | 78591 | 92160
8 | 20:28.61 | 3:04.24 | 92161 | 105984
9 | 23:33.10 | 3:48.26 | 105985 | 123110
10 | 27:21.36 | 2:49.08 | 123111 | 135793
11 | 30:10.44 | 3:02.58 | 135794 | 149501
12 | 33:13.27 | 3:06.73 | 149502 | 163524
13 | 36:20.25 | 3:04.66 | 163525 | 177390
14 | 39:25.16 | 2:49.13 | 177391 | 190078
15 | 42:14.29 | 2:49.62 | 190079 | 202815
16 | 45:04.16 | 3:08.14 | 202816 | 216929
17 | 48:12.30 | 6:38.68 | 216930 | 246847
Характеристики диапазона извлечения и сообщения об ошибках
Выбранный диапазон
Имя файла C:\Documents and Settings\Polzovatel\Мои документы\Мои рисунки\Волшебники Двора - Волшебная пластинка.wav
Пиковый уровень 100.0 %
Качество диапазона 100.0 %
CRC теста E1FCB4B6
CRC копии E1FCB4B6
Копирование... OK
Ошибок не произошло
AccurateRip: сводка
Трек 1 нет в базе данных
Трек 2 нет в базе данных
Трек 3 нет в базе данных
Трек 4 нет в базе данных
Трек 5 нет в базе данных
Трек 6 нет в базе данных
Трек 7 нет в базе данных
Трек 8 нет в базе данных
Трек 9 нет в базе данных
Трек 10 нет в базе данных
Трек 11 нет в базе данных
Трек 12 нет в базе данных
Трек 13 нет в базе данных
Трек 14 нет в базе данных
Трек 15 нет в базе данных
Трек 16 нет в базе данных
Трек 17 нет в базе данных
Ни одного трека нет в базе AccurateRip
Конец отчёта
Содержание индексной карты (.CUE)
REM GENRE Pop
REM DATE 2010
REM DISCID E90CDB11
REM COMMENT "ExactAudioCopy v0.99pb5"
PERFORMER "Волшебники Двора"
TITLE "Волшебная пластинка"
FILE "Волшебники Двора - Волшебная пластинка.wav" WAVE
TRACK 01 AUDIO
TITLE "Соло на трубе"
PERFORMER "Волшебники Двора"
FLAGS DCP
INDEX 01 00:00:00
TRACK 02 AUDIO
TITLE "Валентина"
PERFORMER "Волшебники Двора"
FLAGS DCP
INDEX 00 02:56:48
INDEX 01 02:58:48
TRACK 03 AUDIO
TITLE "Хорошее настроение"
PERFORMER "Волшебники Двора"
FLAGS DCP
INDEX 00 06:01:00
INDEX 01 06:03:00
TRACK 04 AUDIO
TITLE "Бибика"
PERFORMER "Волшебники Двора"
FLAGS DCP
INDEX 00 08:50:12
INDEX 01 08:52:12
TRACK 05 AUDIO
TITLE "Там, где Новый Год"
PERFORMER "Волшебники Двора"
FLAGS DCP
INDEX 00 11:41:45
INDEX 01 11:43:45
TRACK 06 AUDIO
TITLE "Спит ангел"
PERFORMER "Волшебники Двора"
FLAGS DCP
INDEX 00 14:29:36
INDEX 01 14:31:36
TRACK 07 AUDIO
TITLE "Лови лето"
PERFORMER "Волшебники Двора"
FLAGS DCP
INDEX 00 17:25:66
INDEX 01 17:27:66
TRACK 08 AUDIO
TITLE "Любовь заела пацанов"
PERFORMER "Волшебники Двора"
FLAGS DCP
INDEX 00 20:26:61
INDEX 01 20:28:61
TRACK 09 AUDIO
TITLE "Алло"
PERFORMER "Волшебники Двора"
FLAGS DCP
INDEX 00 23:31:10
INDEX 01 23:33:10
TRACK 10 AUDIO
TITLE "Закаты алые"
PERFORMER "Волшебники Двора"
FLAGS DCP
INDEX 00 27:19:36
INDEX 01 27:21:36
TRACK 11 AUDIO
TITLE "Россия, мы дети твои"
PERFORMER "Волшебники Двора"
FLAGS DCP
INDEX 00 30:08:44
INDEX 01 30:10:44
TRACK 12 AUDIO
TITLE "Капитошка"
PERFORMER "Волшебники Двора"
FLAGS DCP
INDEX 00 33:11:27
INDEX 01 33:13:27
TRACK 13 AUDIO
TITLE "Капитошка (японская версия)"
PERFORMER "Волшебники Двора"
FLAGS DCP
INDEX 00 36:18:25
INDEX 01 36:20:25
TRACK 14 AUDIO
TITLE "Хорошее настроение (караоке)"
PERFORMER "Волшебники Двора"
FLAGS DCP
INDEX 00 39:23:16
INDEX 01 39:25:16
TRACK 15 AUDIO
TITLE "Бибика (караоке)"
PERFORMER "Волшебники Двора"
FLAGS DCP
INDEX 00 42:12:29
INDEX 01 42:14:29
TRACK 16 AUDIO
TITLE "Капитошка (караоке)"
PERFORMER "Волшебники Двора"
FLAGS DCP
INDEX 00 45:02:16
INDEX 01 45:04:16
TRACK 17 AUDIO
TITLE "Мегамикс"
PERFORMER "Волшебники Двора"
FLAGS DCP
INDEX 00 48:10:30
INDEX 01 48:12:30
INDEX 02 49:12:26
INDEX 03 49:14:29
INDEX 04 52:27:53
INDEX 05 52:29:22
INDEX 06 52:37:55
INDEX 07 52:39:56
INDEX 08 54:09:06
INDEX 09 54:10:50
Скриншот спектра частот Adobe Audition

Волшебники двора - Волшебная пластинка - 2010, MP3, 320 kbps
Волшебники Двора - Концерт в "Орленке" [2008 г., DVD5]

>>>мои раздачи<<<
Download
Для скачивания .torrent файлов необходима регистрация
Сайт не распространяет и не хранит электронные версии произведений, а лишь предоставляет доступ к создаваемому пользователями каталогу ссылок на торрент-файлы, которые содержат только списки хеш-сумм
[Профиль]  [ЛС] 

__FRANNY__

Top Seed 03* 160r

Стаж: 10 лет 6 месяцев

Сообщений: 1674

__FRANNY__ · 20-Ноя-10 23:39 (спустя 55 мин.)

[Цитировать] 

Вот за это спасибо! Есть несколько песен на этом CD, которые мне таки нравятся. А дисков с более старыми их треками (''Дорогой к солнцу'', например) случайно нет? Именно lossless интересует.
[Профиль]  [ЛС] 

(sss)

Стаж: 10 лет 11 месяцев

Сообщений: 1

(sss) · 21-Ноя-10 15:54 (спустя 16 часов)

[Цитировать] 

Господа,
неплохо бы подождать с раздачей этого альбома.
Продажи диска только что начались. Зачем отнимать
у правообладателя возможность продавать новый альбом?
[Профиль]  [ЛС] 

__FRANNY__

Top Seed 03* 160r

Стаж: 10 лет 6 месяцев

Сообщений: 1674

__FRANNY__ · 21-Ноя-10 17:33 (спустя 1 час 39 мин.)

[Цитировать] 

(sss)
Те, кто коллекционируют CD, купят в любом случае и никакой lossless их не удовлетворит.
[Профиль]  [ЛС] 

ZsnWl

Стаж: 8 лет 8 месяцев

Сообщений: 6


ZsnWl · 21-Ноя-10 20:02 (спустя 2 часа 28 мин.)

[Цитировать] 

Блин, скорости нет, дайте скачать!!!
Или кто скачал, выложите плиз на файлообменник! Именно lossless! Спасибо заранее!
[Профиль]  [ЛС] 

chalaviek

Стаж: 9 лет 8 месяцев

Сообщений: 1


chalaviek · 15-Янв-11 17:21 (спустя 1 месяц 23 дня)

[Цитировать] 

Сue не правильный.
Если убрать вот это:
скрытый текст
INDEX 02 49:12:26
INDEX 03 49:14:29
INDEX 04 52:27:53
INDEX 05 52:29:22
INDEX 06 52:37:55
INDEX 07 52:39:56
INDEX 08 54:09:06
INDEX 09 54:10:50
то нормально режется на треки.
[Профиль]  [ЛС] 

rmb_rmb

VIP (Заслуженный)

Стаж: 10 лет 2 месяца

Сообщений: 3484

rmb_rmb · 15-Янв-11 17:28 (спустя 7 мин.)

[Цитировать] 

Цитата:
Сue не правильный.
.Сue верный.
Пользуйтесь рекомендованными для записи программами
http://rutracker.org/forum/viewforum.php?f=1872
[Профиль]  [ЛС] 

Otets Feodor

Стаж: 7 лет 8 месяцев

Сообщений: 155

Otets Feodor · 14-Окт-18 19:36 (спустя 7 лет 8 месяцев)

[Цитировать] 

не могу найти песню этой группы "С днём рождения" ни в лосслес, ни даже в мп3
[Профиль]  [ЛС] 
 
Ответить
Loading...
Error