Салют-7 (Клим Шипенко) [2017, Россия, Драма, приключения, триллер, DVD9] + Original Rus

Страницы:  1

Ответить
Автор
Сообщение

vitolinform

Стаж: 9 месяцев

Сообщений: 217


vitolinform · 06-Окт-18 01:09 (1 месяц 11 дней назад, ред. 06-Окт-18 01:20)

Салют-7
Страна: Россия
Студия: Канал Россия, Кинокомпания CTB, Lemon Films Studio, Vita Aktiva
Жанр: Драма, приключения, триллер
Год выпуска: 2017
Продолжительность: 01:46:10
Перевод: Не требуется
Субтитры: нет
Оригинальная аудиодорожка: русский
Режиссер: Клим Шипенко
В ролях: Владимир Вдовиченков (Федоров Владимир Джанибеков), Павел Деревянко (Виктор Савиных), Александр Самойленко (Валерий Рюмин, руководитель полёта), Виталий Хаев, Оксана Фандера, Любовь Аксенова, Роман Перелыгин (Плахов), Полина Руденко (Оля, дочь космонавта Владимира Федорова), Александра Серебрякова (сотрудница ЦУП), Мария Миронова (Нина, жена Федорова), Наталья Кудряшова, Александр Ратников
Описание: Космическая станция «Салют-7», находящаяся на орбите в беспилотном режиме, неожиданно перестает отвечать на сигналы центра управления полетом. Принято решение об отправке на орбиту спасательной экспедиции. Космический экипаж должен найти «мертвую» станцию и впервые в мире провести стыковку с 20-тонной глыбой неуправляемого железа. Космонавты понимают, что шансов вернуться на Землю у них немного. Но этот рискованный путь — единственно возможный. Они должны не только проникнуть на «Салют-7», но и оживить его. Смогут ли два человека предотвратить неминуемую катастрофу и спасти планету от падения станции? Спасательная экспедиция превращается в опасное испытание. На орбите разворачивается настоящий космический детектив. Фильм основан на реальных событиях: полет к станции «Салют-7» в 1985 году считается самым сложным полетом в истории космонавтики.
| IMDb 7.2 | КиноПоиск 7.4 | Cэмпл |
За предоставленный DVD, огромное спасибо AKIM2B

Золотой орел, 2018 год
Победитель:
- Лучший фильм
- Лучший монтаж
Номинации:
- Лучшая мужская роль (Владимир Вдовиченков)
- Лучшая мужская роль второго плана (Александр Самойленко)
- Лучшая работа звукорежиссера
- Лучшие визуальные эффекты

Ника, 2018 год
Победитель:
- Лучшая работа оператора
Номинации:
- Лучший фильм
Меню: Есть, статичное, озвученное, на русском языке
Тип релиза: DVD9
Контейнер: DVD-Video
Видео: PAL 16:9 (720x576) VBR Auto Letterboxed, ~ 7289.32 kbps avg, fps 25.000
Аудио 1: Russian (Dolby AC3, 6 ch) | AC3, 3/2 (L,C,R,SL,SR)+LFE ch, 448 kbps, 48.0 kHz, 16 bits
Аудио 2: Russian (DTS, 5 ch) | AC3, 3/2 (L,C,R,SL,SR)+LFE ch, 755 kbps, 48.0 kHz, 16 bits
MediaInfo
Title: Salyut7.2017.DVD9
Size: 6.00 Gb ( 6 287 328,00 KBytes ) - DVD-9
Enabled regions: 1, 2, 3, 4, 5, 6, 7, 8
VTS_01 :
Play Length: 00:00:26+{00:00:26}+{00:00:26}
Video: PAL 16:9 (720x576) VBR, Auto Pan&Scan, Auto Letterboxed
Audio:
Russian (Dolby AC3, 2 ch)
English (Dolby AC3, 6 ch)
English (Dolby AC3, 6 ch)
VTS_02 :
Play Length: 01:46:10
Video: PAL 16:9 (720x576) VBR, Auto Pan&Scan, Auto Letterboxed
Audio:
Russian, AC3, 3/2 (L,C,R,SL,SR)+LFE ch, 448 kbps, Delay 0 mSec
Russian, DTS, 3/2 (L,C,R,SL,SR), 768 kbps, Delay 0 mSec
* Menus Information *
VIDEO_TS Menu
Video:
PAL 16:9 (720x576) VBR
Auto Pan&Scan, Auto Letterboxed
English Language Unit :
Title Menu
VTS_01 Menu
Video:
PAL 16:9 (720x576) VBR
Auto Letterboxed
Audio:
Not specified (Dolby AC3, 2 ch)
English Language Unit :
Root Menu
Chapter (PTT) Menu
VTS_02 Menu
Video:
PAL 4:3 (720x576) VBR
English Language Unit :
Root Menu
Audio Menu
Chapter (PTT) Menu
======================================
Общее
Полное имя : C:\Salyut7.2017.DVD9\VIDEO_TS\VTS_02_1.VOB
Формат : MPEG-PS
Размер файла : 1024 Мбайт
Продолжительность : 20 м. 7 с.
Режим общего битрейта : Переменный
Общий поток : 7110 Кбит/сек
Видео
Идентификатор : 224 (0xE0)
Формат : MPEG Video
Версия формата : Version 2
Профиль формата : [email protected]
Настройки формата : CustomMatrix / BVOP
Параметр BVOP формата : Да
Параметр матрицы формата : Выборочная
Параметр GOP формата : M=3, N=12
Продолжительность : 20 м. 7 с.
Вид битрейта : Переменный
Битрейт : 5766 Кбит/сек
Максимальный битрейт : 8500 Кбит/сек
Ширина : 720 пикселей
Высота : 576 пикселей
Соотношение сторон : 16:9
Частота кадров : 25,000 кадров/сек
Стандарт вещания : PAL
Цветовое пространство : YUV
Субдискретизация насыщенности : 4:2:0
Битовая глубина : 8 бит
Тип развёртки : Прогрессивная
Метод сжатия : С потерями
Бит/(Пиксели*Кадры) : 0.556
Временной код первого кадра : 00:00:00:00
Оригинал временного кода : Group of pictures header
GOP, открыто/закрыто : Открыто
GOP, открыто/закрыто на первом кадре : Закрыто
Размер потока : 830 Мбайт (81%)
Аудио #1
Идентификатор : 189 (0xBD)-128 (0x80)
Формат : AC-3
Формат/Информация : Audio Coding 3
Режим смешивания : DVD-Video
Продолжительность : 20 м. 7 с.
Вид битрейта : Постоянный
Битрейт : 448 Кбит/сек
Каналы : 6 каналов
Расположение каналов : Front: L C R, Side: L R, LFE
Частота : 48,0 КГц
Частота кадров : 31,250 кадров/сек (1536 SPF)
Битовая глубина : 16 бит
Метод сжатия : С потерями
Размер потока : 64,5 Мбайт (6%)
ServiceKind/String : Complete Main
Аудио #2
Идентификатор : 189 (0xBD)-137 (0x89)
Формат : DTS
Формат/Информация : Digital Theater Systems
Режим смешивания : DVD-Video
Продолжительность : 20 м. 7 с.
Вид битрейта : Постоянный
Битрейт : 755 Кбит/сек
Каналы : 6 каналов
Расположение каналов : Front: L C R, Side: L R, LFE
Частота : 48,0 КГц
Частота кадров : 93,750 кадра/сек (512 SPF)
Битовая глубина : 24 бит
Метод сжатия : С потерями
Размер потока : 109 Мбайт (11%)
Меню
Скриншоты меню
Скриншоты
Download
Для скачивания .torrent файлов необходима регистрация
Сайт не распространяет и не хранит электронные версии произведений, а лишь предоставляет доступ к создаваемому пользователями каталогу ссылок на торрент-файлы, которые содержат только списки хеш-сумм
[Профиль]  [ЛС] 

bot · 06-Окт-18 19:17 (спустя 18 часов)

Тема была перенесена из форума DVD Video в форум Наше кино (DVD Video)
perrelcin
 

pasha22002

Стаж: 6 лет 3 месяца

Сообщений: 2


pasha22002 · 11-Окт-18 15:17 (спустя 5 дней, ред. 11-Окт-18 15:17)

[Цитировать] 

В ДВД-5 ужимать будете ?
В ДВД-5 ужимать будете ?
[Профиль]  [ЛС] 

cr24

Стаж: 8 лет 9 месяцев

Сообщений: 1501

cr24 · 15-Окт-18 07:20 (спустя 3 дня)

[Цитировать] 

vitolinform и AKIM2B Спасибо за хорошее кино на DVD9 PAL )))
[Профиль]  [ЛС] 

IvanTanchik

Стаж: 6 лет 1 месяц

Сообщений: 9


IvanTanchik · 11-Ноя-18 20:03 (спустя 27 дней, ред. 11-Ноя-18 20:03)

[Цитировать] 

Пожалуйста Время первых сделайте.
[Профиль]  [ЛС] 
 
Ответить
Loading...
Error