Кома / Coma (Майкл Крайтон / Michael Crichton) [1978, США, триллер, детектив, BDRip 720p] DVO + 2хAVO (Михалёв, Горчаков) + original (eng) + sub (eng)

Страницы:  1

Ответить
Автор
Сообщение

Mirmekiy

Top Seed 03* 160r

Стаж: 10 лет 2 месяца

Сообщений: 797

Mirmekiy · 07-Июл-12 17:40 (6 лет 4 месяца назад)

[Цитировать] 

Кома / Coma
Год выпуска: 1978
Страна: США
Жанр: триллер, детектив
Продолжительность: 01:52:58
Перевод1: Авторский (одноголосый закадровый) (А. Михалев)
Перевод2: Профессиональный (двухголосый, закадровый)
Перевод3: Авторский (одноголосый, закадровый)(В. Горчаков)
Субтитры: английские
Оригинальная аудиодорожка: английский
Режиссер: Майкл Крайтон / Michael Crichton
В ролях: Женевьев Бюжо, Майкл Дуглас, Элизабет Эшли, Рип Торн, Ричард Уидмарк, Лоис Чайлз, Хари Родс, Гари Бартон, Фрэнк Доунинг, Ричард Дойл
Описание: Молодая женщина-доктор начинает подозревать, что в ее больнице творится что-то неладное. Относительно здоровые пациенты испытывают "осложнения" во время простых операций и впадают в кому. Затем несчастных коматозников отвозят в исследовательский институт, где они находятся под наблюдением. Доктору Сьюзан Уилер предстоит исследовать палаты, морги и другие мрачные места жутковатого медицинского центра Джефферсона и убедить своего скептически настроенного коллегу - доктора Марка, что ее подозрения - не паранойя.
Русские дорожки взяты из: http://rutracker.org/forum/viewtopic.php?t=3181363

Качество: BDRip 720p (MySilu)
Формат: MKV
Видео кодек: H.264
Аудио кодек: AC3, DTS
Видео: 1280 x 720; 23,976 fps; 5025 Kbps
Аудио1: Русский, AC3 2.0 192 Kbps 48,0 КГц(Михалев)
Аудио2: Русский, AC3 2.0 192 Kbps 48,0 КГц(DVO)
Аудио3: Русский, AC3 2.0 192 Kbps 48,0 КГц(Горчаков)
Аудио4: English, DTS 1.0 768 Kbps 48,0 КГц(Оригинал)
Субтитры: softsub (SRT)
MediaInfo
D:\HDFILMS\Coma.1978.720p.BDRip.3xRus.Eng.mkv
General
Unique ID : 251674327239540232754936906725765898267 (0xBD56B659B6920741BF12B180BA7B601B)
Complete name : D:\HDFILMS\Coma.1978.720p.BDRip.3xRus.Eng.mkv
Format : Matroska
Format version : Version 2
File size : 5.03 GiB
Duration : 1h 52mn
Overall bit rate : 6 370 Kbps
Encoded date : UTC 2012-07-06 18:59:34
Writing application : mkvmerge v5.3.0 ('I could have danced') built on Feb 9 2012 10:38:07
Writing library : libebml v1.2.3 + libmatroska v1.3.0
Video #1
ID : 1
Format : AVC
Format/Info : Advanced Video Codec
Format profile : [email protected]
Format settings, CABAC : Yes
Format settings, ReFrames : 8 frames
Codec ID : V_MPEG4/ISO/AVC
Duration : 1h 52mn
Bit rate : 5 025 Kbps
Width : 1 280 pixels
Height : 720 pixels
Display aspect ratio : 16:9
Frame rate : 23.976 fps
Color space : YUV
Chroma subsampling : 4:2:0
Bit depth : 8 bits
Scan type : Progressive
Bits/(Pixel*Frame) : 0.227
Stream size : 3.88 GiB (77%)
Title : Coma.1978.Blu-ray.720p.x264.DTSmono.MySilu
Writing library : x264 core 125 r2200 999b753
Encoding settings : cabac=1 / ref=8 / deblock=1:-2:-2 / analyse=0x3:0x133 / me=umh / subme=9 / psy=1 / psy_rd=1.20:0.20 / mixed_ref=1 /
me_range=16 / chroma_me=1 / trellis=2 / 8x8dct=1 / cqm=0 / deadzone=21,11 / fast_pskip=1 / chroma_qp_offset=-3 / threads=6 / lookahead_threads=1 /
sliced_threads=0 / nr=0 / decimate=0 / interlaced=0 / bluray_compat=0 / constrained_intra=0 / bframes=3 / b_pyramid=2 / b_adapt=2 / b_bias=0 /
direct=3 / weightb=1 / open_gop=0 / weightp=2 / keyint=240 / keyint_min=1 / scenecut=40 / intra_refresh=0 / rc_lookahead=60 / rc=2pass / mbtree=1 /
bitrate=5025 / ratetol=1.0 / qcomp=0.60 / qpmin=10 / qpmax=51 / qpstep=4 / cplxblur=20.0 / qblur=0.5 / vbv_maxrate=38000 / vbv_bufsize=38000 /
nal_hrd=none / ip_ratio=1.40 / aq=1:1.00
Language : English
Default : Yes
Forced : No
Audio #2
ID : 2
Format : AC-3
Format/Info : Audio Coding 3
Mode extension : CM (complete main)
Codec ID : A_AC3
Duration : 1h 52mn
Bit rate mode : Constant
Bit rate : 192 Kbps
Channel(s) : 2 channels
Channel positions : Front: L R
Sampling rate : 48.0 KHz
Bit depth : 16 bits
Compression mode : Lossy
Stream size : 155 MiB (3%)
Title : Mikhalev AC3 2.0 192 kbps
Language : Russian
Default : Yes
Forced : No
Audio #3
ID : 3
Format : AC-3
Format/Info : Audio Coding 3
Mode extension : CM (complete main)
Codec ID : A_AC3
Duration : 1h 52mn
Bit rate mode : Constant
Bit rate : 192 Kbps
Channel(s) : 2 channels
Channel positions : Front: L R
Sampling rate : 48.0 KHz
Bit depth : 16 bits
Compression mode : Lossy
Stream size : 155 MiB (3%)
Title : DVO AC3 2.0 192 kbps
Language : Russian
Default : No
Forced : No
Audio #4
ID : 4
Format : AC-3
Format/Info : Audio Coding 3
Mode extension : CM (complete main)
Codec ID : A_AC3
Duration : 1h 52mn
Bit rate mode : Constant
Bit rate : 192 Kbps
Channel(s) : 2 channels
Channel positions : Front: L R
Sampling rate : 48.0 KHz
Bit depth : 16 bits
Compression mode : Lossy
Stream size : 155 MiB (3%)
Title : Gorchakov AC3 2.0 192 kbps
Language : Russian
Default : No
Forced : No
Audio #5
ID : 5
Format : DTS
Format/Info : Digital Theater Systems
Codec ID : A_DTS
Duration : 1h 52mn
Bit rate mode : Constant
Bit rate : 755 Kbps
Channel(s) : 1 channel
Channel positions : Front: C
Sampling rate : 48.0 KHz
Bit depth : 24 bits
Compression mode : Lossy
Stream size : 610 MiB (12%)
Title : Original DTS 1.0 768 kbps
Language : English
Default : No
Forced : No
Text #6
ID : 6
Format : UTF-8
Codec ID : S_TEXT/UTF8
Codec ID/Info : UTF-8 Plain Text
Language : English
Default : Yes
Forced : No
Скриншоты
[Профиль]  [ЛС] 

bot · 15-Окт-18 08:36 (спустя 6 лет 3 месяца)

Тема была перенесена из форума Зарубежное кино (HD Video) в форум Архив (DVD, HD Video)
cedr
 
 
Ответить
Loading...
Error