(Pop Latin / Europop) [CD] Chicasss - Mil Voces - 1990, FLAC (image+.cue), lossless

Страницы:  1

Ответить
Автор
Сообщение

Lococesarea

Стаж: 5 лет 10 месяцев

Сообщений: 137

Lococesarea · 10-Авг-18 18:41 (3 месяца 11 дней назад, ред. 12-Авг-18 12:05)

Chicasss - Mil Voces
Жанр: Pop Latin / Europop
Носитель: CD
Страна-производитель диска (релиза): Spain
Год издания: 1990
Издатель (лейбл): Mercury
Номер по каталогу: 846 643-2
Страна исполнителя (группы): Spain
Аудиокодек: FLAC (*.flac)
Тип рипа: image+.cue
Битрейт аудио: lossless
Продолжительность: 45:48
Источник (релизер): Lococesarea
Наличие сканов в содержимом раздачи: да
Треклист:
01. Soy La Que Sufre Por Tu Amor (3:51)
02. Morning, Noon And Night (3:24)
03. Tu, Solo Tu (3:53)
04. Esta Noche (4:01)
05. Higher (3:51)
06. Mil Voces (4:24)
07. Todo Al Ganador (3:15)
08. La Antorcha (3:41)
09. Lost In Love (3:49)
10. Adios (4:13)
11. I Cannot Let You Go (3:48)
12. I Need To Know (3:38)
Лог создания рипа
Exact Audio Copy V1.3 from 2. September 2016
EAC extraction logfile from 10. August 2018, 16:39
Chicasss / Mil Voces (846 643-2)
Used drive : hp PLDS DVDRW DU8AESH Adapter: 1 ID: 0
Read mode : Secure
Utilize accurate stream : Yes
Defeat audio cache : Yes
Make use of C2 pointers : No
Read offset correction : 6
Overread into Lead-In and Lead-Out : No
Fill up missing offset samples with silence : Yes
Delete leading and trailing silent blocks : No
Null samples used in CRC calculations : Yes
Used interface : Native Win32 interface for Win NT & 2000
Used output format : User Defined Encoder
Selected bitrate : 768 kBit/s
Quality : High
Add ID3 tag : No
Command line compressor : C:\Program Files (x86)\Exact Audio Copy\Flac\flac.exe
Additional command line options : -8 -V -T "ARTIST=%artist%" -T "TITLE=%title%" -T "ALBUM=%albumtitle%" -T "DATE=%year%" -T "TRACKNUMBER=%tracknr%" -T "GENRE=%genre%" -T "PERFORMER=%albuminterpret%" -T "COMPOSER=%composer%" %haslyrics%--tag-from-file=LYRICS="%lyricsfile%"%haslyrics% -T "ALBUMARTIST=%albumartist%" -T "DISCNUMBER=%cdnumber%" -T "TOTALDISCS=%totalcds%" -T "TOTALTRACKS=%numtracks%" -T "COMMENT=%comment%" %source% -o %dest%
TOC of the extracted CD
Track | Start | Length | Start sector | End sector
---------------------------------------------------------
1 | 0:00.33 | 3:51.25 | 33 | 17382
2 | 3:51.58 | 3:23.67 | 17383 | 32674
3 | 7:15.50 | 3:53.10 | 32675 | 50159
4 | 11:08.60 | 4:01.03 | 50160 | 68237
5 | 15:09.63 | 3:51.10 | 68238 | 85572
6 | 19:00.73 | 4:24.00 | 85573 | 105372
7 | 23:24.73 | 3:15.20 | 105373 | 120017
8 | 26:40.18 | 3:40.72 | 120018 | 136589
9 | 30:21.15 | 3:49.00 | 136590 | 153764
10 | 34:10.15 | 4:12.55 | 153765 | 172719
11 | 38:22.70 | 3:47.53 | 172720 | 189797
12 | 42:10.48 | 3:38.22 | 189798 | 206169
Range status and errors
Selected range
Filename C:\Users\Marco\Documents\Chicasss - Mil Voces (846 643-2).wav
Peak level 98.2 %
Extraction speed 1.8 X
Range quality 100.0 %
Test CRC CC8B6B13
Copy CRC CC8B6B13
Copy OK
No errors occurred
AccurateRip summary
Track 1 not present in database
Track 2 not present in database
Track 3 not present in database
Track 4 not present in database
Track 5 not present in database
Track 6 not present in database
Track 7 not present in database
Track 8 not present in database
Track 9 not present in database
Track 10 not present in database
Track 11 not present in database
Track 12 not present in database
None of the tracks are present in the AccurateRip database
End of status report
==== Log checksum 0B4083705A117B6159AC673E5F9BFF27A6817A7D25B3152E4ED63397E47AA396 ====
Содержание индексной карты (.CUE)
REM GENRE Europop
REM DATE 1990
REM DISCID 780ABC0C
REM COMMENT "ExactAudioCopy v1.3"
PERFORMER "Chicasss"
TITLE "Mil Voces (846 643-2)"
REM COMPOSER ""
FILE "Chicasss - Mil Voces (846 643-2).flac" WAVE
TRACK 01 AUDIO
TITLE "Soy La Que Sufre Por Tu Amor"
PERFORMER "Chicasss"
REM COMPOSER ""
INDEX 00 00:00:00
INDEX 01 00:00:33
TRACK 02 AUDIO
TITLE "Morning, Noon And Night"
PERFORMER "Chicasss"
REM COMPOSER ""
INDEX 00 03:48:55
INDEX 01 03:51:58
TRACK 03 AUDIO
TITLE "Tu, Solo Tu"
PERFORMER "Chicasss"
REM COMPOSER ""
INDEX 00 07:12:58
INDEX 01 07:15:50
TRACK 04 AUDIO
TITLE "Esta Noche"
PERFORMER "Chicasss"
REM COMPOSER ""
INDEX 00 11:04:28
INDEX 01 11:08:60
TRACK 05 AUDIO
TITLE "Higher"
PERFORMER "Chicasss"
REM COMPOSER ""
INDEX 00 15:07:28
INDEX 01 15:09:63
TRACK 06 AUDIO
TITLE "Mil Voces"
PERFORMER "Chicasss"
REM COMPOSER ""
INDEX 00 18:58:00
INDEX 01 19:00:73
TRACK 07 AUDIO
TITLE "Todo Al Ganador"
PERFORMER "Chicasss"
REM COMPOSER ""
INDEX 00 23:22:60
INDEX 01 23:24:73
TRACK 08 AUDIO
TITLE "La Antorcha"
PERFORMER "Chicasss"
REM COMPOSER ""
INDEX 00 26:37:30
INDEX 01 26:40:18
TRACK 09 AUDIO
TITLE "Lost In Love"
PERFORMER "Chicasss"
REM COMPOSER ""
INDEX 00 30:18:15
INDEX 01 30:21:15
TRACK 10 AUDIO
TITLE "Adios"
PERFORMER "Chicasss"
REM COMPOSER ""
INDEX 00 34:06:48
INDEX 01 34:10:15
TRACK 11 AUDIO
TITLE "I Cannot Let You Go"
PERFORMER "Chicasss"
REM COMPOSER ""
INDEX 00 38:20:60
INDEX 01 38:22:70
TRACK 12 AUDIO
TITLE "I Need To Know"
PERFORMER "Chicasss"
REM COMPOSER ""
INDEX 00 42:07:20
INDEX 01 42:10:48
Dynamic Range Meter
foobar2000 1.3.15 / Dynamic Range Meter 1.1.1
log date: 2018-08-10 16:44:09
--------------------------------------------------------------------------------
Analyzed: Chicasss / Mil Voces (846 643-2)
--------------------------------------------------------------------------------
DR Peak RMS Duration Track
--------------------------------------------------------------------------------
DR11 -1.13 dB -14.50 dB 3:51 01-Soy La Que Sufre Por Tu Amor
DR11 -0.24 dB -13.33 dB 3:24 02-Morning, Noon And Night
DR9 -0.59 dB -11.50 dB 3:53 03-Tu, Solo Tu
DR10 -0.39 dB -12.09 dB 4:01 04-Esta Noche
DR10 -0.45 dB -11.96 dB 3:51 05-Higher
DR10 -0.17 dB -12.01 dB 4:24 06-Mil Voces
DR10 -0.23 dB -11.77 dB 3:15 07-Todo Al Ganador
DR9 -0.27 dB -11.12 dB 3:41 08-La Antorcha
DR9 -0.33 dB -10.36 dB 3:49 09-Lost In Love
DR10 -0.16 dB -11.55 dB 4:13 10-Adios
DR10 -0.58 dB -11.57 dB 3:48 11-I Cannot Let You Go
DR10 -0.16 dB -11.48 dB 3:38 12-I Need To Know
--------------------------------------------------------------------------------
Number of tracks: 12
Official DR value: DR10
Samplerate: 44100 Hz
Channels: 2
Bits per sample: 16
Bitrate: 983 kbps
Codec: FLAC
================================================================================
auCDtect
-----------------------
DON'T MODIFY THIS FILE
-----------------------
PERFORMER: auCDtect Task Manager, ver. 1.6.0 RC1 build 1.6.0.1
Copyright (c) 2008-2010 y-soft. All rights reserved
http://y-soft.org
ANALYZER: auCDtect: CD records authenticity detector, version 0.8.2
Copyright (c) 2004 Oleg Berngardt. All rights reserved.
Copyright (c) 2004 Alexander Djourik. All rights reserved.
FILE: Chicasss - Mil Voces (846 643-2).flac
Size: 337803494 Hash: 07D4021835335A3CD442D794D7A18F79 Accuracy: -m8
Conclusion: CDDA 100%
Signature: 7F60C5C863B2C0B30D7C7C594D690AEEC4E55A99
Download
Для скачивания .torrent файлов необходима регистрация
Сайт не распространяет и не хранит электронные версии произведений, а лишь предоставляет доступ к создаваемому пользователями каталогу ссылок на торрент-файлы, которые содержат только списки хеш-сумм
[Профиль]  [ЛС] 

Славо4ек

Стажер-модератор

Стаж: 8 лет 10 месяцев

Сообщений: 2539

Славо4ек · 12-Авг-18 05:12 (спустя 1 день 10 часов)

[Цитировать] 


Lococesarea

По заголовку замечание то же, что и тут: (Pop Latin / Ballad) [CD] Manu Tenorio - Manu Tenorio - 2002, FLAC (image+.cue), lossless
[Профиль]  [ЛС] 

Lococesarea

Стаж: 5 лет 10 месяцев

Сообщений: 137

Lococesarea · 12-Авг-18 12:13 (спустя 7 часов)

[Цитировать] 

Славо4ек писал(а):
75798344

Lococesarea

По заголовку замечание то же, что и тут: (Pop Latin / Ballad) [CD] Manu Tenorio - Manu Tenorio - 2002, FLAC (image+.cue), lossless
Я заменил скрипты
[Профиль]  [ЛС] 

Папа Карлo

Стаж: 11 лет

Сообщений: 178

Папа Карлo · 16-Окт-18 06:45 (спустя 2 месяца 3 дня, ред. 16-Окт-18 06:45)

[Цитировать] 

Lococesarea
Большое Спасибо!!!
Очень редкий альбом
может у Вас и Flamenco Nights есть?
хотя на трекере уже имеется
но меня терзают смутные сомнения...
[Профиль]  [ЛС] 
 
Ответить
Loading...
Error