(Pop) [CD] Demis Roussos - Universum - 2016 (1979), FLAC (image+.cue), lossless

Страницы:  1

Ответить
Автор
Сообщение

eloychik

Стаж: 8 лет 6 месяцев

Сообщений: 223

eloychik · 22-Фев-17 12:35 (1 год 8 месяцев назад)

Demis Roussos / Universum
Жанр: Pop
Носитель: CD
Страна-производитель диска (релиза): Germany
Год издания: 1979 (2016)
Издатель (лейбл): Universal
Номер по каталогу: 536 973-0
Страна исполнителя (группы): Greece
Аудиокодек: FLAC (*.flac)
Тип рипа: image+.cue
Битрейт аудио: lossless
Продолжительность: 01:14:08
Источник (релизер): Собственная коллекция
Наличие сканов в содержимом раздачи: да
Треклист:
01. Romantica
02. C'est Peut-Etre Une Fable
03. J'attends La Nuit (French Version of ''Untill The Night'')
04. Loin Des Yeux, Loin Du Coeur
05. Il Faut Qu'il Revienne
06. Tu N'as Pas Le Droit (French Version of ''Sometimes When We Touch'')
07. Chantez Enfants Du Monde
08. Maria
09. Les Enfants De L'amour (French Version of ''Wild River'')
10. Si J'Etais Magicien
11. New Horizon
Bonus tracks:
12. Brother
13. For Love
14. Les Yeux Fermes
15. Seasons Of Love (B-side of ''Race To The End'')
16. Dolce Veleno (Italian Version of '' Loin Des Yeux, Loin Du Coeur'')
17. Ojos Que No Ven (Spanish Version of '' Loin Des Yeux, Loin Du Coeur'')
18. Il Tocco Dell'amore (Italian Version of '' Sometimes When We Touch'')
19. Diez Anos Yaoda (Spanish Version of '' Dix Ans Plus Tot'')
Лог создания рипа
Exact Audio Copy V1.3 from 2. September 2016
Отчёт EAC об извлечении, выполненном 22. февраля 2017, 11:15
Demis Roussos / Universum
Дисковод: ASUS DRW-24B3ST Adapter: 1 ID: 0
Режим чтения : Достоверность
Использование точного потока : Да
Отключение кэша аудио : Да
Использование указателей C2 : Нет
Коррекция смещения при чтении : 6
Способность читать области Lead-in и Lead-out : Нет
Заполнение пропущенных сэмплов тишиной : Да
Удаление блоков с тишиной в начале и конце : Нет
При вычислениях CRC использовались нулевые сэмплы : Да
Интерфейс : Встроенный Win32-интерфейс для Win NT/2000
Выходной формат : Пользовательский кодировщик
Выбранный битрейт : 128 kBit/s
Качество : Высокий
Добавление ID3-тега : Нет
Утилита сжатия : C:\Program Files (x86)\Exact Audio Copy\Flac\flac.exe
Дополнительные параметры : -V -8 -T "Date=%year%" -T "Genre=%genre%" %source%
TOC извлечённого CD
Трек | Старт | Длительность | Начальный сектор | Конечный сектор
---------------------------------------------------------------------
1 | 0:00.00 | 4:32.00 | 0 | 20399
2 | 4:32.00 | 4:06.39 | 20400 | 38888
3 | 8:38.39 | 3:47.10 | 38889 | 55923
4 | 12:25.49 | 3:09.17 | 55924 | 70115
5 | 15:34.66 | 4:00.57 | 70116 | 88172
6 | 19:35.48 | 3:59.20 | 88173 | 106117
7 | 23:34.68 | 5:10.00 | 106118 | 129367
8 | 28:44.68 | 3:52.17 | 129368 | 146784
9 | 32:37.10 | 5:01.09 | 146785 | 169368
10 | 37:38.19 | 3:50.39 | 169369 | 186657
11 | 41:28.58 | 3:00.29 | 186658 | 200186
12 | 44:29.12 | 4:01.59 | 200187 | 218320
13 | 48:30.71 | 3:55.28 | 218321 | 235973
14 | 52:26.24 | 2:50.30 | 235974 | 248753
15 | 55:16.54 | 4:20.34 | 248754 | 268287
16 | 59:37.13 | 2:58.56 | 268288 | 281693
17 | 62:35.69 | 3:04.13 | 281694 | 295506
18 | 65:40.07 | 3:58.21 | 295507 | 313377
19 | 69:38.28 | 4:29.50 | 313378 | 333602
Характеристики диапазона извлечения и сообщения об ошибках
Выбранный диапазон
Имя файла E:\Раздачи\Папки\Demis Roussos - Universum\Demis Roussos - Universum.wav
Пиковый уровень 100.0 %
Скорость извлечения 6.7 X
Качество диапазона 100.0 %
CRC теста 2D10EA4F
CRC копии 2D10EA4F
Копирование... OK
Ошибок не произошло
AccurateRip: сводка
Трек 1 : извлечено точно (доверие 1) [BEA918D0] (AR v2)
Трек 2 : извлечено точно (доверие 1) [60AD0607] (AR v2)
Трек 3 : извлечено точно (доверие 1) [D9017BCF] (AR v2)
Трек 4 : извлечено точно (доверие 1) [5873418F] (AR v2)
Трек 5 : извлечено точно (доверие 1) [0936D5C2] (AR v2)
Трек 6 : извлечено точно (доверие 1) [62395706] (AR v2)
Трек 7 : извлечено точно (доверие 1) [AC0083CF] (AR v2)
Трек 8 : извлечено точно (доверие 1) [EF4B8560] (AR v2)
Трек 9 : извлечено точно (доверие 1) [103DA100] (AR v2)
Трек 10 : извлечено точно (доверие 1) [0AD83608] (AR v2)
Трек 11 : извлечено точно (доверие 1) [E4419203] (AR v2)
Трек 12 : извлечено точно (доверие 1) [BF428B3A] (AR v2)
Трек 13 : извлечено точно (доверие 1) [59B18BFB] (AR v2)
Трек 14 : извлечено точно (доверие 1) [721D27C8] (AR v2)
Трек 15 : извлечено точно (доверие 1) [D562D51C] (AR v2)
Трек 16 : извлечено точно (доверие 1) [BB200F42] (AR v2)
Трек 17 : извлечено точно (доверие 1) [63EDF1F8] (AR v2)
Трек 18 : извлечено точно (доверие 1) [2E20B494] (AR v2)
Трек 19 : извлечено точно (доверие 1) [64781EC0] (AR v2)
Все треки извлечены точно
Конец отчёта
==== Контрольная сумма отчёта DC7AC8C3089E8F6A24FD7696392F025DE4E6C4745127BA9A38734C1F7EACC2AC ====
Содержание индексной карты (.CUE)
REM GENRE Pop
REM DATE 2016
REM DISCID 22116013
REM COMMENT "ExactAudioCopy v1.3"
CATALOG 0600753697306
PERFORMER "Demis Roussos"
TITLE "Universum "
REM COMPOSER ""
FILE "Demis Roussos - Universum.flac" WAVE
TRACK 01 AUDIO
TITLE "Romantica"
PERFORMER "Demis Roussos"
REM COMPOSER ""
ISRC NLF050190045
INDEX 01 00:00:00
TRACK 02 AUDIO
TITLE "C'est Peut-Etre Une Fable"
PERFORMER "Demis Roussos"
REM COMPOSER ""
ISRC GBUM71107252
INDEX 00 04:30:00
INDEX 01 04:32:00
TRACK 03 AUDIO
TITLE "J'attends La Nuit (French Version of ''Untill The Night'')"
PERFORMER "Demis Roussos"
REM COMPOSER ""
ISRC GBUM71107256
INDEX 00 08:36:39
INDEX 01 08:38:39
TRACK 04 AUDIO
TITLE "Loin Des Yeux, Loin Du Coeur"
PERFORMER "Demis Roussos"
REM COMPOSER ""
ISRC NLF057990064
INDEX 00 12:23:49
INDEX 01 12:25:49
TRACK 05 AUDIO
TITLE "Il Faut Qu'Il Revienne"
PERFORMER "Demis Roussos"
REM COMPOSER ""
ISRC GBUM71107251
INDEX 00 15:32:66
INDEX 01 15:34:66
TRACK 06 AUDIO
TITLE "Tu N'as Pas Le Droit (French Version of ''Sometimes When We Touch'')"
PERFORMER "Demis Roussos"
REM COMPOSER ""
ISRC GBUM71107195
INDEX 00 19:33:48
INDEX 01 19:35:48
TRACK 07 AUDIO
TITLE "Chantez Enfants Du Monde"
PERFORMER "Demis Roussos"
REM COMPOSER ""
ISRC GBUM71107254
INDEX 00 23:32:68
INDEX 01 23:34:68
TRACK 08 AUDIO
TITLE "Maria"
PERFORMER "Demis Roussos"
REM COMPOSER ""
ISRC GBUM71107253
INDEX 00 28:42:68
INDEX 01 28:44:68
TRACK 09 AUDIO
TITLE "Les Enfants De L'amour (French Version of ''Wild River'')"
PERFORMER "Demis Roussos"
REM COMPOSER ""
ISRC GBUM71107257
INDEX 00 32:35:10
INDEX 01 32:37:10
TRACK 10 AUDIO
TITLE "Si J'etais Magicien"
PERFORMER "Demis Roussos"
REM COMPOSER ""
ISRC GBUM71107258
INDEX 00 37:36:19
INDEX 01 37:38:19
TRACK 11 AUDIO
TITLE "New Horizon"
PERFORMER "Demis Roussos"
REM COMPOSER ""
ISRC GBUM71503295
INDEX 00 41:26:58
INDEX 01 41:28:58
TRACK 12 AUDIO
TITLE "Brother"
PERFORMER "Demis Roussos"
REM COMPOSER ""
ISRC GBUM71602520
INDEX 00 44:27:12
INDEX 01 44:29:12
TRACK 13 AUDIO
TITLE "For Love"
PERFORMER "Demis Roussos"
REM COMPOSER ""
ISRC GBUM71602580
INDEX 00 48:28:71
INDEX 01 48:30:71
TRACK 14 AUDIO
TITLE "Les Yeux Fermes"
PERFORMER "Demis Roussos"
REM COMPOSER ""
ISRC GBUM71602581
INDEX 00 52:24:24
INDEX 01 52:26:24
TRACK 15 AUDIO
TITLE "Seasons Of Love (B-side of ''Race To The End'')"
PERFORMER "Demis Roussos"
REM COMPOSER ""
ISRC GBUM71500946
INDEX 00 55:14:54
INDEX 01 55:16:54
TRACK 16 AUDIO
TITLE "Dolce Veleno (Italian Version of '' Loin Des Yeux, Loin Du Coeur'')"
PERFORMER "Demis Roussos"
REM COMPOSER ""
ISRC GBUM71503280
INDEX 00 59:35:13
INDEX 01 59:37:13
TRACK 17 AUDIO
TITLE "Ojos Que No Ven (Spanish Version of '' Loin Des Yeux, Loin Du Coeur'')"
PERFORMER "Demis Roussos"
REM COMPOSER ""
ISRC GBUM71602582
INDEX 00 62:33:69
INDEX 01 62:35:69
TRACK 18 AUDIO
TITLE "Il Tocco Dell'amore (Italian Version of '' Sometimes When We Touch'')"
PERFORMER "Demis Roussos"
REM COMPOSER ""
ISRC GBUM71503273
INDEX 00 65:38:07
INDEX 01 65:40:07
TRACK 19 AUDIO
TITLE "Diez Anos Ya (Spanish Version of '' Dix Ans Plus Tot'')"
PERFORMER "Demis Roussos"
REM COMPOSER ""
ISRC GBUM71602587
INDEX 00 69:36:28
INDEX 01 69:38:28
Лог проверки качества
-----------------------
DON'T MODIFY THIS FILE
-----------------------
PERFORMER: auCDtect Task Manager, ver. 1.6.0 RC1 build 1.6.0.1
Copyright (c) 2008-2010 y-soft. All rights reserved
http://y-soft.org
ANALYZER: auCDtect: CD records authenticity detector, version 0.8.2
Copyright (c) 2004 Oleg Berngardt. All rights reserved.
Copyright (c) 2004 Alexander Djourik. All rights reserved.
FILE: Demis Roussos - Universum.flac
Size: 553517370 Hash: 0E0E5FDF29C6ED181CB5A0EBD70C6537 Accuracy: -m0
Conclusion: CDDA 100%
Signature: 5636DEFE9BFFE809D21942F1BDC2CCEE49236573
Download
Для скачивания .torrent файлов необходима регистрация
Сайт не распространяет и не хранит электронные версии произведений, а лишь предоставляет доступ к создаваемому пользователями каталогу ссылок на торрент-файлы, которые содержат только списки хеш-сумм
[Профиль]  [ЛС] 

doctordoris

Стаж: 6 лет 2 месяца

Сообщений: 64


doctordoris · 13-Июн-17 13:58 (спустя 3 месяца 19 дней)

[Цитировать] 

Конкретно этот альбом мог не слышать в те времена. Скачаю, раз его нет в "местной" дискографии. Жаль, что только на одном языке. ТАМ написано, что было "в 4-х вариантах (итал. нем. фр. исп.)".. Ладно, послушаем на французском)) Это привычнее после Джо Дассена.
Спасибо раздающему!!!!!!!!!!!!
[Профиль]  [ЛС] 

cristianmerkert

Стаж: 8 лет

Сообщений: 8


cristianmerkert · 16-Окт-18 22:33 (спустя 1 год 4 месяца, ред. 16-Окт-18 22:33)

[Цитировать] 

First of all, thanks so much for sharing this one ♥
Sorry I don't speak russian. Can you please help me to share here my own vinyl rip of the argentinian edition of this album (9 songs recorded in spanish out of 10) in this tracker? I'd send it to you through wetransfer, and hopefully you'd post it here at rutracker. Could you please? I have tried to figure out how to share things myself here but was completely unsuccessfull In fact, to share Laura Branigan stuff, I had to contact a fellow russian user, and did this same thing (I sent him all the songs, and he posted them here at rutracker).
I hope you can help me Best regards from Argentina.

[Профиль]  [ЛС] 
 
Ответить
Loading...
Error