Пора тюльпанов / Lale Devri / Сезон: 2 (3) / Серии: 1-41 (41) (Мерве Гиргин) [2010-2012, Турция, Драма, мелодрама, WEBRip] DVO (Хабар)

Страницы:  1
Ответить
Автор
Сообщение

rafwan123

Top Loader 04* 1TB

Стаж: 8 лет 7 месяцев

Сообщений: 841

rafwan123 · 14-Мар-19 14:13 (5 месяцев 9 дней назад, ред. 14-Мар-19 14:14)

Пора тюльпанов / Lale Devri
Год выпуска: 2010-2012
Производство: Avşar Film
Жанр: Драма, мелодрама
Продолжительность: 41 х ~ 01:42:36
Перевод: Профессиональный двухголосый закадровый (т\к Хабар)
Субтитры: Отсутствуют
Режиссёр: Мерве Гиргин
В ролях: Толгахан Сайышман, Хатидже Аслан, Кенан Баль, Гюль Онат, Серенай Сарыкая, Айтен Сойкёк, Селен Сойдер, Лейла Унер Эрмая, Айкут Йильмаз, Гизем Денизджи
Описание: Семья Ташкыран: классическая и утонченная семья из Стамбула. После гибели отца, финансовое положение в семье ухудшается и сталкивается с банкротством. Властная мать делает все, чтобы сохранить свои высокие стандарты, даже, впутывая окружающих в свои интриги. Семья Илгаз: консервативная семья, очень состоятельная и на пике своего бизнеса. Любовь между Лале, дочери Зумрут Ташкыран и Чинар, единственного сына семьи Илгаз вновь сведет пути этих семей после тайной женитьбы.
Доп. информация:
Сериал переведен и озвучен агентством Хабар. Текст читали: Марьяна Покровская и Виталий Багрянцев
Рип и сведение звука - Lexsa1 и rafwan123
Качество: WEBRip
Формат: AVI
Видео кодек: XviD
Аудио кодек: MP3
Видео: XviD, 720x400 (16:9), 25 fps, ~ 1400 Kbps
Аудио: МР3, 44.1 KHz, 2 ch, 128 Kbps
Реклама: Отсутствует
MI
Общее
Полное имя : G:\LaleDevri.S02.DVO\LaleDevri.s02e038.avi
Формат : AVI
Формат/Информация : Audio Video Interleave
Размер файла : 1,30 Гбайт
Продолжительность : 2 ч. 0 м.
Общий поток : 1542 Кбит/сек
Программа кодирования : VirtualDubModRus 1.5.10.2 (build 2542/release)
Библиотека кодирования : VirtualDubMod build 2542/release
Видео
Идентификатор : 0
Формат : MPEG-4 Visual
Профиль формата : Advanced [email protected]
Параметр BVOP формата : 2
Параметр QPel формата : Нет
Параметр GMC формата : Без точки перехода
Параметр матрицы формата : Выборочная
Идентификатор кодека : XVID
Идентификатор кодека/Подсказка : XviD
Продолжительность : 2 ч. 0 м.
Битрейт : 1404 Кбит/сек
Ширина : 720 пикселей
Высота : 400 пикселей
Соотношение сторон : 16:9
Частота кадров : 25,000 кадров/сек
Цветовое пространство : YUV
Субдискретизация насыщенности : 4:2:0
Битовая глубина : 8 бит
Тип развёртки : Прогрессивная
Метод сжатия : С потерями
Бит/(Пиксели*Кадры) : 0.195
Размер потока : 1,18 Гбайт (91%)
Библиотека кодирования : XviD 1.2.1 (UTC 2008-12-04)
Аудио
Идентификатор : 1
Формат : MPEG Audio
Версия формата : Version 1
Профиль формата : Layer 3
Идентификатор кодека : 55
Идентификатор кодека/Подсказка : MP3
Продолжительность : 2 ч. 0 м.
Вид битрейта : Постоянный
Битрейт : 128 Кбит/сек
Каналы : 2 канала
Частота : 44,1 КГц
Метод сжатия : С потерями
Размер потока : 110 Мбайт (8%)
Выравнивание : Разделение по промежуткам
Продолжительность промежутка : 40 мс. (1,00 видеокадр)
Время предзагрузки промежутка : 500 мс.
Скриншоты
Предыдущие и альтернативные раздачи
Download
Сайт не распространяет и не хранит электронные версии произведений, а лишь предоставляет доступ к создаваемому пользователями каталогу ссылок на торрент-файлы, которые содержат только списки хеш-сумм
Как скачивать? (для скачивания .torrent файлов необходима регистрация)
[Профиль]  [ЛС] 

rafwan123

Top Loader 04* 1TB

Стаж: 8 лет 7 месяцев

Сообщений: 841

rafwan123 · 14-Мар-19 14:14 (спустя 46 сек.)

Присутствуют непереведенные фрагменты!
[Профиль]  [ЛС] 

DLeonidSF

Стаж: 10 лет 4 месяца

Сообщений: 1867

DLeonidSF · 14-Мар-19 15:28 (спустя 1 час 13 мин.)

rafwan123 большое спасибо за эту раздачу, но у меня вопрос: в раздаче Роскошной леди первого сезона после 40-й серии половина серий была пропущена, нет ли у Вас возможности раздать и первый сезон? В этом сериале первые сезоны наиболее интересны, а часть первого сезона отсутствует.
[Профиль]  [ЛС] 

rafwan123

Top Loader 04* 1TB

Стаж: 8 лет 7 месяцев

Сообщений: 841

rafwan123 · 14-Мар-19 15:57 (спустя 29 мин.)

DLeonidSF
На первый сезон нет голосового перевода, только субтитры. Ими я, увы, не занимаюсь.
Если кто-то возьмется сделать красивую раздачу с субтитрами - помогу новыми рипами. Но сомневаюсь, потому что, как Вы правильно заметили, половина серий в 1 сезоне попросту отсутствует...
[Профиль]  [ЛС] 

DLeonidSF

Стаж: 10 лет 4 месяца

Сообщений: 1867

DLeonidSF · 15-Мар-19 10:42 (спустя 18 часов, ред. 15-Мар-19 10:42)

rafwan123 спасибо за разъяснение, радует, что наиболее интересная часть первого сезона в первой его половине. Посмотрел качество серий - отличное, с прошлыми просто сравнивать невозможно. Посмотрел на канале FOX, там есть серии начиная с 113 и до 135, а первых не нашел даже у них.
[Профиль]  [ЛС] 
 
Ответить
Loading...
Error