Женщина в окне / The Woman in the Window (Фриц Ланг / Fritz Lang) [1944, США, нуар, триллер, детектив, BDRemux 1080p] DVO (Культура) + AVO (Медведев) + Original Eng + Sub Eng

Страницы:  1

Ответить
Автор
Сообщение

DarLeg

Стаж: 10 лет 9 месяцев

Сообщений: 1440


DarLeg · 17-Авг-18 00:00 (11 месяцев назад)

Женщина в окне / The Woman in the Window
Год выпуска: 1944
Страна: США
Жанр: нуар, триллер, детектив
Продолжительность: 01:39:05
Перевод 1: Профессиональный (двухголосый закадровый) т/к "Культура"
Перевод 2: Авторский (одноголосый закадровый) Алексей Медведев
Оригинальная аудиодорожка: Английская
Субтитры: Английские
Режиссер: Фриц Ланг / Fritz Lang
В ролях: Эдвард Дж. Робинсон, Джоан Беннетт, Рэймонд Мэсси, Эдмунд Бреон, Дэн Дюрьи, Томас Джексон, Артур Лофт, Дороти Питерсон, Фрэнк Доусон, Кэрол Кэмерон
Описание:
По роману "Застигнутый врасплох" (Once Off Guard) Дж. Х. Уоллиса. Пятидесятипятилетний профессор психологии Ричард Ванли, известный криминолог, однажды вечером, когда его жена и дети уехали на каникулы, видит в витрине галереи портрет молодой женщины, которым он уже неоднократно восхищался. Вдруг он видит женщину, которая как две капли воды похожа на портрет. Это модель Алиса Рид, которая позировала художнику. Она приглашает Ванли к себе домой, чтобы показать другие полотна этого художника. Неожиданно появляется возлюбленный дамы. Обуянный ревностью, он устраивает скандал и Ванли случайно убивает его…
За дорожки спасибо miha2154 и SeRG59.
| | Сэмпл
Качество: BDRemux 1080p (The Woman in the Window (1944) - BD25 - Untouched - Tsh)
Контейнер: MKV
Видео: AVC, 1920x1080 (1.33:1), 23.976 fps, 21904 kbps
Аудио 1: Русский AC3 2.0, 48 kHz, 192 kbps — т/к "Культура"
Аудио 2: Русский AC3 2.0, 48 kHz, 192 kbps — Алексей Медведев
Аудио 3: Английский DTS-HD MA 2.0, 48 kHz, 1536 kbps, 16-bit (DTS Core: 2.0, 48 kHz, 1509 kbps, 16-bit)
Аудио 4: Английский AC3 2.0, 48 kHz, 192 kbps - Комментарии
Формат субтитров: softsub (SRT)
Скриншоты
MI
General
Unique ID : 331672387171459045335724581670800164259 (0xF985C7394B54737E94B93FDE5BC985A3)
Complete name : The.Woman.in.the.Window.1944.1080p.BDRemux.mkv
Format : Matroska
Format version : Version 2
File size : 16.6 GiB
Duration : 1 h 39 min
Overall bit rate mode : Variable
Overall bit rate : 24.0 Mb/s
Movie name : The Woman in the Window / Женщина в окне (1944) – RuTracker
Encoded date : UTC 2018-08-16 20:05:16
Writing application : mkvmerge v25.0.0 ('Prog Noir') 64-bit
Writing library : libebml v1.3.6 + libmatroska v1.4.9
Cover : Yes
Attachments : cover.jpg
Video
ID : 1
Format : AVC
Format/Info : Advanced Video Codec
Format profile : [email protected]
Format settings : CABAC / 4 Ref Frames
Format settings, CABAC : Yes
Format settings, RefFrames : 4 frames
Codec ID : V_MPEG4/ISO/AVC
Duration : 1 h 39 min
Bit rate mode : Variable
Bit rate : 21.9 Mb/s
Maximum bit rate : 38.0 Mb/s
Width : 1 920 pixels
Height : 1 080 pixels
Display aspect ratio : 16:9
Frame rate mode : Constant
Frame rate : 23.976 (24000/1001) FPS
Color space : YUV
Chroma subsampling : 4:2:0
Bit depth : 8 bits
Scan type : Progressive
Bits/(Pixel*Frame) : 0.441
Stream size : 15.2 GiB (91%)
Language : English
Default : Yes
Forced : No
Audio #1
ID : 2
Format : AC-3
Format/Info : Audio Coding 3
Codec ID : A_AC3
Duration : 1 h 39 min
Bit rate mode : Constant
Bit rate : 192 kb/s
Channel(s) : 2 channels
Channel positions : Front: L R
Sampling rate : 48.0 kHz
Frame rate : 31.250 FPS (1536 SPF)
Bit depth : 16 bits
Compression mode : Lossy
Stream size : 136 MiB (1%)
Title : DVO – т/к "Культура"
Language : Russian
Service kind : Complete Main
Default : Yes
Forced : No
Audio #2
ID : 3
Format : AC-3
Format/Info : Audio Coding 3
Codec ID : A_AC3
Duration : 1 h 39 min
Bit rate mode : Constant
Bit rate : 192 kb/s
Channel(s) : 2 channels
Channel positions : Front: L R
Sampling rate : 48.0 kHz
Frame rate : 31.250 FPS (1536 SPF)
Bit depth : 16 bits
Compression mode : Lossy
Stream size : 136 MiB (1%)
Title : AVO – А. Медведев
Language : Russian
Service kind : Complete Main
Default : No
Forced : No
Audio #3
ID : 4
Format : DTS
Format/Info : Digital Theater Systems
Format profile : MA / Core
Codec ID : A_DTS
Duration : 1 h 39 min
Bit rate mode : Variable / Constant
Bit rate : 1 536 kb/s / 1 509 kb/s
Channel(s) : 2 channels
Channel positions : Front: L R
Sampling rate : 48.0 kHz
Frame rate : 93.750 FPS (512 SPF)
Bit depth : 16 bits
Compression mode : Lossless / Lossy
Stream size : 1.08 GiB (6%)
Title : Original
Language : English
Default : No
Forced : No
Audio #4
ID : 5
Format : AC-3
Format/Info : Audio Coding 3
Codec ID : A_AC3
Duration : 1 h 39 min
Bit rate mode : Constant
Bit rate : 192 kb/s
Channel(s) : 2 channels
Channel positions : Front: L R
Sampling rate : 48.0 kHz
Frame rate : 31.250 FPS (1536 SPF)
Bit depth : 16 bits
Compression mode : Lossy
Stream size : 136 MiB (1%)
Title : Commentary by Film Historian Imogen Sara Smith
Language : English
Service kind : Complete Main
Default : No
Forced : No
Text
ID : 6
Format : UTF-8
Codec ID : S_TEXT/UTF8
Codec ID/Info : UTF-8 Plain Text
Duration : 1 h 37 min
Bit rate : 60 b/s
Count of elements : 1155
Stream size : 42.9 KiB (0%)
Language : English
Default : No
Forced : No
Menu
00:00:00.000 : en:01. Main Titles / Psychology
00:01:55.032 : en:02. Summer Bachelorhood
00:03:58.113 : en:03. Too Old for Adventure
00:09:22.771 : en:04. The Woman in the Window
00:15:24.257 : en:05. Homicide
00:18:46.292 : en:06. No One Knows
00:25:27.693 : en:07. Erasing the Evidence
00:35:01.683 : en:08. Dumping the Body
00:40:07.030 : en:09. Confidential News
00:45:42.448 : en:10. Murder Investigation
00:50:40.913 : en:11. The Girlfriend Theory
00:53:43.303 : en:12. Crime Scene
00:59:05.459 : en:13. Woman Suspect
01:01:48.288 : en:14. Blackmail
01:12:59.750 : en:15. Three Options
01:18:29.288 : en:16. Have a Drink
01:28:36.645 : en:17. So Tired
01:31:53.341 : en:18. Case Closed
01:34:00.468 : en:19. Too Late
01:35:57.126 : en:20. Reality
Download
Для скачивания .torrent файлов необходима регистрация
Сайт не распространяет и не хранит электронные версии произведений, а лишь предоставляет доступ к создаваемому пользователями каталогу ссылок на торрент-файлы, которые содержат только списки хеш-сумм
[Профиль]  [ЛС] 

Ugo927

Стаж: 8 лет 2 месяца

Сообщений: 337

Ugo927 · 17-Авг-18 00:53 (спустя 53 мин.)

DarLeg, спасибо за качество!
Великолепное трио: Эдвард Робинсон, Джоан Беннетт и Дэн Дюрьи в двух шедеврах Фрица Ланга: Женщина в окне (1944) и Улица греха (1945).
[Профиль]  [ЛС] 

bot · 17-Авг-18 13:59 (спустя 13 часов)

Тема была перенесена из форума HD Video в форум Классика мирового кинематографа (HD Video)
porvaliparus
 

[email protected]

Top Bonus 04* 3TB

Стаж: 11 лет 4 месяца

Сообщений: 3452

[email protected] · 17-Июн-19 13:32 (спустя 10 месяцев)

Ох уж эти роковые красотки, таинственные тени да выстрелы в ночи. Всё таки, когда тебе за полтинник, надо быть аккуратнее с женщинами, даже нарисованными.
[Профиль]  [ЛС] 
 
Ответить
Loading...
Error